  0
SECTION
  2
HEADER
  9
$ACADVER
  1
AC1018
  9
$ACADMAINTVER
 70
     0
  9
$DWGCODEPAGE
  3
ANSI_1252
  9
$INSBASE
 10
0.0
 20
0.0
 30
0.0
  9
$EXTMIN
 10
-227.5717962706793
 20
-4.7631396345181
 30
0.0
  9
$EXTMAX
 10
69.42820372931877
 20
205.236860365482
 30
0.0
  9
$LIMMIN
 10
0.0
 20
0.0
  9
$LIMMAX
 10
12.0
 20
9.0
  9
$ORTHOMODE
 70
     0
  9
$REGENMODE
 70
     1
  9
$FILLMODE
 70
     1
  9
$QTEXTMODE
 70
     0
  9
$MIRRTEXT
 70
     1
  9
$LTSCALE
 40
1.0
  9
$ATTMODE
 70
     1
  9
$TEXTSIZE
 40
0.2
  9
$TRACEWID
 40
0.05
  9
$TEXTSTYLE
  7
Standard
  9
$CLAYER
  8
0
  9
$CELTYPE
  6
ByLayer
  9
$CECOLOR
 62
   256
  9
$CELTSCALE
 40
1.0
  9
$DISPSILH
 70
     0
  9
$DIMSCALE
 40
1.0
  9
$DIMASZ
 40
0.18
  9
$DIMEXO
 40
0.0625
  9
$DIMDLI
 40
0.38
  9
$DIMRND
 40
0.0
  9
$DIMDLE
 40
0.0
  9
$DIMEXE
 40
0.18
  9
$DIMTP
 40
0.0
  9
$DIMTM
 40
0.0
  9
$DIMTXT
 40
0.18
  9
$DIMCEN
 40
0.09
  9
$DIMTSZ
 40
0.0
  9
$DIMTOL
 70
     0
  9
$DIMLIM
 70
     0
  9
$DIMTIH
 70
     1
  9
$DIMTOH
 70
     1
  9
$DIMSE1
 70
     0
  9
$DIMSE2
 70
     0
  9
$DIMTAD
 70
     0
  9
$DIMZIN
 70
     0
  9
$DIMBLK
  1

  9
$DIMASO
 70
     1
  9
$DIMSHO
 70
     1
  9
$DIMPOST
  1

  9
$DIMAPOST
  1

  9
$DIMALT
 70
     0
  9
$DIMALTD
 70
     2
  9
$DIMALTF
 40
25.4
  9
$DIMLFAC
 40
1.0
  9
$DIMTOFL
 70
     0
  9
$DIMTVP
 40
0.0
  9
$DIMTIX
 70
     0
  9
$DIMSOXD
 70
     0
  9
$DIMSAH
 70
     0
  9
$DIMBLK1
  1

  9
$DIMBLK2
  1

  9
$DIMSTYLE
  2
Standard
  9
$DIMCLRD
 70
     0
  9
$DIMCLRE
 70
     0
  9
$DIMCLRT
 70
     0
  9
$DIMTFAC
 40
1.0
  9
$DIMGAP
 40
0.09
  9
$DIMJUST
 70
     0
  9
$DIMSD1
 70
     0
  9
$DIMSD2
 70
     0
  9
$DIMTOLJ
 70
     1
  9
$DIMTZIN
 70
     0
  9
$DIMALTZ
 70
     0
  9
$DIMALTTZ
 70
     0
  9
$DIMUPT
 70
     0
  9
$DIMDEC
 70
     4
  9
$DIMTDEC
 70
     4
  9
$DIMALTU
 70
     2
  9
$DIMALTTD
 70
     2
  9
$DIMTXSTY
  7
Standard
  9
$DIMAUNIT
 70
     0
  9
$DIMADEC
 70
     0
  9
$DIMALTRND
 40
0.0
  9
$DIMAZIN
 70
     0
  9
$DIMDSEP
 70
    46
  9
$DIMATFIT
 70
     3
  9
$DIMFRAC
 70
     0
  9
$DIMLDRBLK
  1

  9
$DIMLUNIT
 70
     2
  9
$DIMLWD
 70
    -2
  9
$DIMLWE
 70
    -2
  9
$DIMTMOVE
 70
     0
  9
$LUNITS
 70
     2
  9
$LUPREC
 70
     4
  9
$SKETCHINC
 40
0.1
  9
$FILLETRAD
 40
0.5
  9
$AUNITS
 70
     0
  9
$AUPREC
 70
     0
  9
$MENU
  1
.
  9
$ELEVATION
 40
0.0
  9
$PELEVATION
 40
0.0
  9
$THICKNESS
 40
0.0
  9
$LIMCHECK
 70
     0
  9
$CHAMFERA
 40
0.5
  9
$CHAMFERB
 40
0.5
  9
$CHAMFERC
 40
1.0
  9
$CHAMFERD
 40
0.0
  9
$SKPOLY
 70
     0
  9
$TDCREATE
 40
2458117.487474745
  9
$TDUCREATE
 40
2458117.445808079
  9
$TDUPDATE
 40
2458117.487475116
  9
$TDUUPDATE
 40
2458117.445808449
  9
$TDINDWG
 40
0.0000000116
  9
$TDUSRTIMER
 40
0.0000000116
  9
$USRTIMER
 70
     1
  9
$ANGBASE
 50
0.0
  9
$ANGDIR
 70
     0
  9
$PDMODE
 70
     0
  9
$PDSIZE
 40
0.0
  9
$PLINEWID
 40
0.0
  9
$SPLFRAME
 70
     0
  9
$SPLINETYPE
 70
     6
  9
$SPLINESEGS
 70
     8
  9
$HANDSEED
  5
267
  9
$SURFTAB1
 70
     6
  9
$SURFTAB2
 70
     6
  9
$SURFTYPE
 70
     6
  9
$SURFU
 70
     6
  9
$SURFV
 70
     6
  9
$UCSBASE
  2

  9
$UCSNAME
  2

  9
$UCSORG
 10
0.0
 20
0.0
 30
0.0
  9
$UCSXDIR
 10
1.0
 20
0.0
 30
0.0
  9
$UCSYDIR
 10
0.0
 20
1.0
 30
0.0
  9
$UCSORTHOREF
  2

  9
$UCSORTHOVIEW
 70
     0
  9
$UCSORGTOP
 10
0.0
 20
0.0
 30
0.0
  9
$UCSORGBOTTOM
 10
0.0
 20
0.0
 30
0.0
  9
$UCSORGLEFT
 10
0.0
 20
0.0
 30
0.0
  9
$UCSORGRIGHT
 10
0.0
 20
0.0
 30
0.0
  9
$UCSORGFRONT
 10
0.0
 20
0.0
 30
0.0
  9
$UCSORGBACK
 10
0.0
 20
0.0
 30
0.0
  9
$PUCSBASE
  2

  9
$PUCSNAME
  2

  9
$PUCSORG
 10
0.0
 20
0.0
 30
0.0
  9
$PUCSXDIR
 10
1.0
 20
0.0
 30
0.0
  9
$PUCSYDIR
 10
0.0
 20
1.0
 30
0.0
  9
$PUCSORTHOREF
  2

  9
$PUCSORTHOVIEW
 70
     0
  9
$PUCSORGTOP
 10
0.0
 20
0.0
 30
0.0
  9
$PUCSORGBOTTOM
 10
0.0
 20
0.0
 30
0.0
  9
$PUCSORGLEFT
 10
0.0
 20
0.0
 30
0.0
  9
$PUCSORGRIGHT
 10
0.0
 20
0.0
 30
0.0
  9
$PUCSORGFRONT
 10
0.0
 20
0.0
 30
0.0
  9
$PUCSORGBACK
 10
0.0
 20
0.0
 30
0.0
  9
$USERI1
 70
     0
  9
$USERI2
 70
     0
  9
$USERI3
 70
     0
  9
$USERI4
 70
     0
  9
$USERI5
 70
     0
  9
$USERR1
 40
18.1
  9
$USERR2
 40
0.0
  9
$USERR3
 40
0.0
  9
$USERR4
 40
0.0
  9
$USERR5
 40
0.0
  9
$WORLDVIEW
 70
     1
  9
$SHADEDGE
 70
     3
  9
$SHADEDIF
 70
    70
  9
$TILEMODE
 70
     1
  9
$MAXACTVP
 70
    64
  9
$PINSBASE
 10
0.0
 20
0.0
 30
0.0
  9
$PLIMCHECK
 70
     0
  9
$PEXTMIN
 10
1.00000000000000E+20
 20
1.00000000000000E+20
 30
1.00000000000000E+20
  9
$PEXTMAX
 10
-1.00000000000000E+20
 20
-1.00000000000000E+20
 30
-1.00000000000000E+20
  9
$PLIMMIN
 10
0.0
 20
0.0
  9
$PLIMMAX
 10
12.0
 20
9.0
  9
$UNITMODE
 70
     0
  9
$VISRETAIN
 70
     1
  9
$PLINEGEN
 70
     0
  9
$PSLTSCALE
 70
     1
  9
$TREEDEPTH
 70
  3020
  9
$CMLSTYLE
  2
Standard
  9
$CMLJUST
 70
     0
  9
$CMLSCALE
 40
1.0
  9
$PROXYGRAPHICS
 70
     1
  9
$MEASUREMENT
 70
     1
  9
$CELWEIGHT
370
    -1
  9
$ENDCAPS
280
     0
  9
$JOINSTYLE
280
     0
  9
$LWDISPLAY
290
     0
  9
$INSUNITS
 70
     4
  9
$HYPERLINKBASE
  1

  9
$STYLESHEET
  1

  9
$XEDIT
290
     1
  9
$CEPSNTYPE
380
     0
  9
$PSTYLEMODE
290
     1
  9
$FINGERPRINTGUID
  2
{DC182273-BE5E-4D23-9482-8805711728E1}
  9
$VERSIONGUID
  2
{FAEB1C32-E019-11D5-929B-00C0DF256EC4}
  9
$EXTNAMES
290
     1
  9
$PSVPSCALE
 40
0.0
  9
$OLESTARTUP
290
     0
  9
$SORTENTS
280
   127
  9
$INDEXCTL
280
     0
  9
$HIDETEXT
280
     1
  9
$XCLIPFRAME
290
     0
  9
$HALOGAP
280
     0
  9
$OBSCOLOR
 70
   257
  9
$OBSLTYPE
280
     0
  9
$INTERSECTIONDISPLAY
280
     0
  9
$INTERSECTIONCOLOR
 70
   257
  9
$DIMASSOC
280
     2
  9
$PROJECTNAME
  1

  0
ENDSEC
  0
SECTION
  2
CLASSES
  0
CLASS
  1
ACDBDICTIONARYWDFLT
  2
AcDbDictionaryWithDefault
  3
ObjectDBX Classes
 90
        0
 91
        4
280
     0
281
     0
  0
CLASS
  1
VISUALSTYLE
  2
AcDbVisualStyle
  3
ObjectDBX Classes
 90
     4095
 91
        4
280
     0
281
     0
  0
CLASS
  1
MATERIAL
  2
AcDbMaterial
  3
ObjectDBX Classes
 90
     1153
 91
        4
280
     0
281
     0
  0
ENDSEC
  0
SECTION
  2
TABLES
  0
TABLE
  2
VPORT
  5
8
330
0
100
AcDbSymbolTable
 70
     1
  0
VPORT
  5
29
330
8
100
AcDbSymbolTableRecord
100
AcDbViewportTableRecord
  2
*Active
 70
     0
 10
0.0
 20
0.0
 11
1.0
 21
1.0
 12
-79.07179627068027
 22
100.2368603654819
 13
0.0
 23
0.0
 14
0.5
 24
0.5
 15
0.5
 25
0.5
 16
0.0
 26
0.0
 36
1.0
 17
0.0
 27
0.0
 37
0.0
 40
231.0000000000001
 41
1.60267857142857
 42
50.0
 43
0.0
 44
0.0
 50
0.0
 51
0.0
 71
     0
 72
   100
 73
     1
 74
     3
 75
     0
 76
     0
 77
     0
 78
     0
281
     0
 65
     1
110
0.0
120
0.0
130
0.0
111
1.0
121
0.0
131
0.0
112
0.0
122
1.0
132
0.0
 79
     0
146
0.0
  0
ENDTAB
  0
TABLE
  2
LTYPE
  5
5
330
0
100
AcDbSymbolTable
 70
     8
  0
LTYPE
  5
14
330
5
100
AcDbSymbolTableRecord
100
AcDbLinetypeTableRecord
  2
ByBlock
 70
     0
  3

 72
    65
 73
     0
 40
0.0
  0
LTYPE
  5
15
330
5
100
AcDbSymbolTableRecord
100
AcDbLinetypeTableRecord
  2
ByLayer
 70
     0
  3

 72
    65
 73
     0
 40
0.0
  0
LTYPE
  5
16
330
5
100
AcDbSymbolTableRecord
100
AcDbLinetypeTableRecord
  2
Continuous
 70
     0
  3
Solid line
 72
    65
 73
     0
 40
0.0
  0
LTYPE
  5
3F
330
5
100
AcDbSymbolTableRecord
100
AcDbLinetypeTableRecord
  2
DASHED
 70
     0
  3
Dashed
 72
    65
 73
     2
 40
15.0
 49
7.0
 74
     0
 49
-8.0
 74
     0
  0
LTYPE
  5
40
330
5
100
AcDbSymbolTableRecord
100
AcDbLinetypeTableRecord
  2
DOTTED
 70
     0
  3
Dotted
 72
    65
 73
     2
 40
1.0
 49
0.0
 74
     0
 49
-1.0
 74
     0
  0
LTYPE
  5
41
330
5
100
AcDbSymbolTableRecord
100
AcDbLinetypeTableRecord
  2
DOT_CENTER
 70
     0
  3
Dot_Center
 72
    65
 73
     4
 40
14.0
 49
12.0
 74
     0
 49
-1.0
 74
     0
 49
0.0
 74
     0
 49
-1.0
 74
     0
  0
LTYPE
  5
42
330
5
100
AcDbSymbolTableRecord
100
AcDbLinetypeTableRecord
  2
LONG_DASHED
 70
     0
  3
Long_Dashed
 72
    65
 73
     2
 40
15.0
 49
10.0
 74
     0
 49
-5.0
 74
     0
  0
LTYPE
  5
43
330
5
100
AcDbSymbolTableRecord
100
AcDbLinetypeTableRecord
  2
DASH_CENTER
 70
     0
  3
Dash_Center
 72
    65
 73
     4
 40
14.0
 49
11.0
 74
     0
 49
-1.0
 74
     0
 49
1.0
 74
     0
 49
-1.0
 74
     0
  0
LTYPE
  5
44
330
5
100
AcDbSymbolTableRecord
100
AcDbLinetypeTableRecord
  2
PHANTOM
 70
     0
  3
Phantom
 72
    65
 73
     6
 40
13.0
 49
10.0
 74
     0
 49
-1.0
 74
     0
 49
0.0
 74
     0
 49
-1.0
 74
     0
 49
0.0
 74
     0
 49
-1.0
 74
     0
  0
LTYPE
  5
45
330
5
100
AcDbSymbolTableRecord
100
AcDbLinetypeTableRecord
  2
CENTER_DASH_DASH
 70
     0
  3
Center_Dash_Dash
 72
    65
 73
     6
 40
14.0
 49
9.0
 74
     0
 49
-1.0
 74
     0
 49
1.0
 74
     0
 49
-1.0
 74
     0
 49
1.0
 74
     0
 49
-1.0
 74
     0
  0
ENDTAB
  0
TABLE
  2
LAYER
  5
2
330
0
100
AcDbSymbolTable
 70
     2
  0
LAYER
  5
10
330
2
100
AcDbSymbolTableRecord
100
AcDbLayerTableRecord
  2
0
 70
     0
 62
     7
  6
Continuous
370
    -3
390
F
  0
LAYER
  5
46
330
2
100
AcDbSymbolTableRecord
100
AcDbLayerTableRecord
  2
1
 70
     0
 62
     7
  6
Continuous
370
    -3
390
F
  0
ENDTAB
  0
TABLE
  2
STYLE
  5
3
330
0
100
AcDbSymbolTable
 70
     5
  0
STYLE
  5
11
330
3
100
AcDbSymbolTableRecord
100
AcDbTextStyleTableRecord
  2
Standard
 70
     0
 40
0.0
 41
1.0
 50
0.0
 71
     0
 42
0.2
  3
txt
  4

  0
STYLE
  5
9E
330
3
100
AcDbSymbolTableRecord
100
AcDbTextStyleTableRecord
  2
CONVERTER_11
 70
     0
 40
0.0
 41
0.9
 50
0.0
 71
     0
 42
0.2
  3
txt.shx
  4

  0
STYLE
  5
202
330
3
100
AcDbSymbolTableRecord
100
AcDbTextStyleTableRecord
  2
CONVERTER_12
 70
     0
 40
0.0
 41
0.81
 50
0.0
 71
     0
 42
0.2
  3
txt.shx
  4

  0
STYLE
  5
218
330
3
100
AcDbSymbolTableRecord
100
AcDbTextStyleTableRecord
  2
CONVERTER_13
 70
     0
 40
0.0
 41
0.72
 50
0.0
 71
     0
 42
0.2
  3
txt.shx
  4

  0
STYLE
  5
21B
330
3
100
AcDbSymbolTableRecord
100
AcDbTextStyleTableRecord
  2
CONVERTER_14
 70
     0
 40
0.0
 41
0.855
 50
0.0
 71
     0
 42
0.2
  3
txt.shx
  4

  0
ENDTAB
  0
TABLE
  2
VIEW
  5
6
330
0
100
AcDbSymbolTable
 70
     0
  0
ENDTAB
  0
TABLE
  2
UCS
  5
7
330
0
100
AcDbSymbolTable
 70
     0
  0
ENDTAB
  0
TABLE
  2
APPID
  5
9
330
0
100
AcDbSymbolTable
 70
     1
  0
APPID
  5
12
330
9
100
AcDbSymbolTableRecord
100
AcDbRegAppTableRecord
  2
ACAD
 70
     0
  0
ENDTAB
  0
TABLE
  2
DIMSTYLE
  5
A
330
0
100
AcDbSymbolTable
 70
     4
100
AcDbDimStyleTable
  0
DIMSTYLE
105
27
330
A
100
AcDbSymbolTableRecord
100
AcDbDimStyleTableRecord
  2
Standard
 70
     0
178
     0
340
11
  0
DIMSTYLE
105
BC
102
{ACAD_REACTORS
330
BD
102
}
330
A
100
AcDbSymbolTableRecord
100
AcDbDimStyleTableRecord
  2
ME10_DIM_10
 70
     0
 41
3.5
 42
0.0
 44
1.5
 73
     0
 74
     0
 77
     1
 78
     8
140
3.5
147
1.5
172
     1
173
     1
174
     1
175
     1
176
     2
177
     2
178
     3
340
9E
  0
DIMSTYLE
105
F9
102
{ACAD_REACTORS
330
FA
102
}
330
A
100
AcDbSymbolTableRecord
100
AcDbDimStyleTableRecord
  2
ME10_DIM_11
 70
     0
 41
3.5
 42
0.0
 44
2.0
 73
     0
 74
     0
 77
     1
 78
     8
140
3.5
147
2.0
172
     1
173
     1
174
     1
175
     1
176
     2
177
     2
178
     3
340
9E
  0
DIMSTYLE
105
104
102
{ACAD_REACTORS
330
105
102
}
330
A
100
AcDbSymbolTableRecord
100
AcDbDimStyleTableRecord
  2
ME10_DIM_12
 70
     0
 41
3.5
 42
0.0
 44
2.0
 73
     0
 74
     0
 77
     1
 78
     8
140
3.5
147
2.0
172
     1
173
     1
174
     1
175
     1
176
     2
177
     2
178
     3
340
9E
  0
ENDTAB
  0
TABLE
  2
BLOCK_RECORD
  5
1
330
0
100
AcDbSymbolTable
 70
    20
  0
BLOCK_RECORD
  5
1F
330
1
100
AcDbSymbolTableRecord
100
AcDbBlockTableRecord
  2
*Model_Space
340
22
  0
BLOCK_RECORD
  5
1B
330
1
100
AcDbSymbolTableRecord
100
AcDbBlockTableRecord
  2
*Paper_Space
340
1E
  0
BLOCK_RECORD
  5
23
330
1
100
AcDbSymbolTableRecord
100
AcDbBlockTableRecord
  2
*Paper_Space0
340
26
  0
BLOCK_RECORD
  5
47
330
1
100
AcDbSymbolTableRecord
100
AcDbBlockTableRecord
  2
D-MSBV_2_5-select__1
340
0
102
{BLKREFS
331
4B
102
}
  0
BLOCK_RECORD
  5
4A
330
1
100
AcDbSymbolTableRecord
100
AcDbBlockTableRecord
  2
AllgSicht1
340
0
102
{BLKREFS
331
7D
102
}
  0
BLOCK_RECORD
  5
4E
330
1
100
AcDbSymbolTableRecord
100
AcDbBlockTableRecord
  2
D-MSBV_2_5-select__2
340
0
102
{BLKREFS
331
52
102
}
  0
BLOCK_RECORD
  5
51
330
1
100
AcDbSymbolTableRecord
100
AcDbBlockTableRecord
  2
Drfsicht1
340
0
102
{BLKREFS
331
7E
102
}
  0
BLOCK_RECORD
  5
55
330
1
100
AcDbSymbolTableRecord
100
AcDbBlockTableRecord
  2
D-MSBV_2_5-select__3
340
0
102
{BLKREFS
331
59
102
}
  0
BLOCK_RECORD
  5
58
330
1
100
AcDbSymbolTableRecord
100
AcDbBlockTableRecord
  2
Rckans1
340
0
102
{BLKREFS
331
7F
102
}
  0
BLOCK_RECORD
  5
5C
330
1
100
AcDbSymbolTableRecord
100
AcDbBlockTableRecord
  2
D-MSBV_2_5-select__4
340
0
102
{BLKREFS
331
60
102
}
  0
BLOCK_RECORD
  5
5F
330
1
100
AcDbSymbolTableRecord
100
AcDbBlockTableRecord
  2
SA_Links1
340
0
102
{BLKREFS
331
80
102
}
  0
BLOCK_RECORD
  5
63
330
1
100
AcDbSymbolTableRecord
100
AcDbBlockTableRecord
  2
D-MSBV_2_5-select__5
340
0
102
{BLKREFS
331
67
102
}
  0
BLOCK_RECORD
  5
66
330
1
100
AcDbSymbolTableRecord
100
AcDbBlockTableRecord
  2
SA_Rechts1
340
0
102
{BLKREFS
331
81
102
}
  0
BLOCK_RECORD
  5
6A
330
1
100
AcDbSymbolTableRecord
100
AcDbBlockTableRecord
  2
D-MSBV_2_5-select__6
340
0
102
{BLKREFS
331
6E
102
}
  0
BLOCK_RECORD
  5
6D
330
1
100
AcDbSymbolTableRecord
100
AcDbBlockTableRecord
  2
Vordans1
340
0
102
{BLKREFS
331
82
102
}
  0
BLOCK_RECORD
  5
71
330
1
100
AcDbSymbolTableRecord
100
AcDbBlockTableRecord
  2
_rahmen
340
0
102
{BLKREFS
331
78
102
}
  0
BLOCK_RECORD
  5
74
330
1
100
AcDbSymbolTableRecord
100
AcDbBlockTableRecord
  2
_punkt
340
0
102
{BLKREFS
331
79
102
}
  0
BLOCK_RECORD
  5
77
330
1
100
AcDbSymbolTableRecord
100
AcDbBlockTableRecord
  2
A4I_CS
340
0
102
{BLKREFS
331
83
102
}
  0
BLOCK_RECORD
  5
7C
330
1
100
AcDbSymbolTableRecord
100
AcDbBlockTableRecord
  2
1
340
0
102
{BLKREFS
331
86
102
}
  0
BLOCK_RECORD
  5
B1
330
1
100
AcDbSymbolTableRecord
100
AcDbBlockTableRecord
  2
*D17
340
0
  0
BLOCK_RECORD
  5
F0
330
1
100
AcDbSymbolTableRecord
100
AcDbBlockTableRecord
  2
*D18
340
0
  0
BLOCK_RECORD
  5
FB
330
1
100
AcDbSymbolTableRecord
100
AcDbBlockTableRecord
  2
*D19
340
0
  0
ENDTAB
  0
ENDSEC
  0
SECTION
  2
BLOCKS
  0
BLOCK
  5
20
330
1F
100
AcDbEntity
  8
0
100
AcDbBlockBegin
  2
*Model_Space
 70
     0
 10
0.0
 20
0.0
 30
0.0
  3
*Model_Space
  1

  0
ENDBLK
  5
21
330
1F
100
AcDbEntity
  8
0
100
AcDbBlockEnd
  0
BLOCK
  5
1C
330
1B
100
AcDbEntity
 67
     1
  8
0
100
AcDbBlockBegin
  2
*Paper_Space
 70
     0
 10
0.0
 20
0.0
 30
0.0
  3
*Paper_Space
  1

  0
ENDBLK
  5
1D
330
1B
100
AcDbEntity
 67
     1
  8
0
100
AcDbBlockEnd
  0
BLOCK
  5
24
330
23
100
AcDbEntity
  8
0
100
AcDbBlockBegin
  2
*Paper_Space0
 70
     0
 10
0.0
 20
0.0
 30
0.0
  3
*Paper_Space0
  1

  0
ENDBLK
  5
25
330
23
100
AcDbEntity
  8
0
100
AcDbBlockEnd
  0
BLOCK
  5
48
330
47
100
AcDbEntity
  8
0
100
AcDbBlockBegin
  2
D-MSBV_2_5-select__1
 70
     0
 10
-5.85640641612734
 20
57.8373382163069
 30
0.0
  3
D-MSBV_2_5-select__1
  1

  0
LINE
  5
87
330
47
100
AcDbEntity
  8
0
  6
Continuous
 62
     7
100
AcDbLine
 10
4.62250096967446
 20
79.76922889097949
 30
0.0
 11
-3.11418618784835
 21
81.32574567797089
 31
0.0
  0
LINE
  5
88
330
47
100
AcDbEntity
  8
0
  6
Continuous
 62
     7
100
AcDbLine
 10
6.62250096966299
 20
81.50127969855068
 30
0.0
 11
4.62250096967446
 21
79.76922889097949
 31
0.0
  0
LINE
  5
89
330
47
100
AcDbEntity
  8
0
  6
Continuous
 62
     7
100
AcDbLine
 10
13.37749911918874
 20
79.55127969854406
 30
0.0
 11
6.62250096966299
 21
81.50127969855068
 31
0.0
  0
LINE
  5
8A
330
47
100
AcDbEntity
  8
0
  6
Continuous
 62
     7
100
AcDbLine
 10
21.85640650497879
 20
69.36769171053183
 30
0.0
 11
19.11418627671129
 21
74.90896726492434
 31
0.0
  0
LINE
  5
8B
330
47
100
AcDbEntity
  8
0
  6
Continuous
 62
     7
100
AcDbLine
 10
23.85640650497879
 20
71.0997425181007
 30
0.0
 11
21.11418627671129
 21
76.64101807249321
 31
0.0
  0
LINE
  5
8C
330
47
100
AcDbEntity
  8
0
  6
Continuous
 62
     7
100
AcDbLine
 10
-4.59679878995165
 20
65.11010341427603
 30
0.0
 11
-5.85640641612734
 21
70.92968085914731
 31
0.0
  0
LINE
  5
8D
330
47
100
AcDbEntity
  8
0
  6
Continuous
 62
     7
100
AcDbLine
 10
-5.85640641612734
 20
70.92968085914731
 30
0.0
 11
-5.85640641612293
 21
77.3676917105506
 31
0.0
  0
LINE
  5
8E
330
47
100
AcDbEntity
  8
0
  6
Continuous
 62
     7
100
AcDbLine
 10
-5.85640641612293
 20
77.3676917105506
 30
0.0
 11
-3.11418618784835
 21
81.32574567797089
 31
0.0
  0
LINE
  5
8F
330
47
100
AcDbEntity
  8
0
  6
Continuous
 62
     7
100
AcDbLine
 10
11.37749911918874
 20
77.81922889097518
 30
0.0
 11
4.62250096967446
 21
79.76922889097949
 31
0.0
  0
LINE
  5
90
330
47
100
AcDbEntity
  8
0
  6
Continuous
 62
     7
100
AcDbLine
 10
13.37749911918874
 20
79.55127969854406
 30
0.0
 11
11.37749911918874
 21
77.81922889097518
 31
0.0
  0
LINE
  5
91
330
47
100
AcDbEntity
  8
0
  6
Continuous
 62
     7
100
AcDbLine
 10
11.37749911918874
 20
77.81922889097518
 30
0.0
 11
19.11418627671129
 21
74.90896726492434
 31
0.0
  0
LINE
  5
92
330
47
100
AcDbEntity
  8
0
  6
Continuous
 62
     7
100
AcDbLine
 10
19.11418627671129
 20
74.90896726492434
 30
0.0
 11
21.11418627671129
 21
76.64101807249321
 31
0.0
  0
LINE
  5
93
330
47
100
AcDbEntity
  8
0
  6
Continuous
 62
     7
100
AcDbLine
 10
13.37749911918874
 20
79.55127969854406
 30
0.0
 11
21.11418627671129
 21
76.64101807249321
 31
0.0
  0
LINE
  5
94
330
47
100
AcDbEntity
  8
0
  6
Continuous
 62
     7
100
AcDbLine
 10
23.85640650497443
 20
64.66173166669739
 30
0.0
 11
21.85640650497442
 21
62.92968085912852
 31
0.0
  0
LINE
  5
95
330
47
100
AcDbEntity
  8
0
  6
Continuous
 62
     7
100
AcDbLine
 10
21.85640650497442
 20
62.92968085912852
 30
0.0
 11
21.85640650497879
 21
69.36769171053183
 31
0.0
  0
LINE
  5
96
330
47
100
AcDbEntity
  8
0
  6
Continuous
 62
     7
100
AcDbLine
 10
22.59679887879129
 20
59.56938902387578
 30
0.0
 11
23.85640650497443
 21
64.66173166669739
 31
0.0
  0
LINE
  5
97
330
47
100
AcDbEntity
  8
0
  6
Continuous
 62
     7
100
AcDbLine
 10
21.85640650497879
 20
69.36769171053183
 30
0.0
 11
23.85640650497879
 21
71.0997425181007
 31
0.0
  0
LINE
  5
98
330
47
100
AcDbEntity
  8
0
  6
Continuous
 62
     7
100
AcDbLine
 10
23.85640650497443
 20
64.66173166669739
 30
0.0
 11
23.85640650497879
 21
71.0997425181007
 31
0.0
  0
LINE
  5
99
330
47
100
AcDbEntity
  8
0
  6
Continuous
 62
     7
100
AcDbLine
 10
20.59679887879129
 20
57.8373382163069
 30
0.0
 11
21.85640650497442
 21
62.92968085912852
 31
0.0
  0
LINE
  5
9A
330
47
100
AcDbEntity
  8
0
  6
Continuous
 62
     7
100
AcDbLine
 10
20.59679887879129
 20
57.8373382163069
 30
0.0
 11
22.59679887879129
 21
59.56938902387578
 31
0.0
  0
LINE
  5
9B
330
47
100
AcDbEntity
  8
0
  6
Continuous
 62
     7
100
AcDbLine
 10
-3.11418618784835
 20
81.32574567797089
 30
0.0
 11
-1.11418618784835
 21
83.05779648553977
 31
0.0
  0
LINE
  5
9C
330
47
100
AcDbEntity
  8
0
  6
Continuous
 62
     7
100
AcDbLine
 10
6.62250096966299
 20
81.50127969855068
 30
0.0
 11
-1.11418618784835
 21
83.05779648553977
 31
0.0
  0
LINE
  5
9D
330
47
100
AcDbEntity
  8
0
  6
Continuous
 62
     7
100
AcDbLine
 10
20.59679887879129
 20
57.8373382163069
 30
0.0
 11
-4.59679878995165
 21
65.11010341427603
 31
0.0
  0
ENDBLK
  5
49
330
47
100
AcDbEntity
  8
0
100
AcDbBlockEnd
  0
BLOCK
  5
4C
330
4A
100
AcDbEntity
  8
0
100
AcDbBlockBegin
  2
AllgSicht1
 70
     0
 10
8.99999999999628
 20
71.0
 30
0.0
  3
AllgSicht1
  1

  0
INSERT
  5
4B
330
4A
100
AcDbEntity
  8
0
100
AcDbBlockReference
  2
D-MSBV_2_5-select__1
 10
-5.85640641612734
 20
57.8373382163069
 30
0.0
  0
MTEXT
  5
9F
330
4A
100
AcDbEntity
  8
1
 62
     6
100
AcDbMText
 10
8.99999999999409
 20
52.47372041948279
 30
0.0
 40
5.0
 41
0.0
 71
     2
 72
     1
  1
 
  7
CONVERTER_11
 73
     1
 44
1.32052821128451
  0
ENDBLK
  5
4D
330
4A
100
AcDbEntity
  8
0
100
AcDbBlockEnd
  0
BLOCK
  5
4F
330
4E
100
AcDbEntity
  8
0
100
AcDbBlockBegin
  2
D-MSBV_2_5-select__2
 70
     0
 10
-134.9999989437137
 20
91.9999997019638
 30
0.0
  3
D-MSBV_2_5-select__2
  1

  0
LINE
  5
A0
330
4E
100
AcDbEntity
  8
0
  6
Continuous
 62
     7
100
AcDbLine
 10
-102.9999989437136
 20
91.99999970196711
 30
0.0
 11
-106.1664421176486
 21
91.99999970196677
 31
0.0
  0
LINE
  5
A1
330
4E
100
AcDbEntity
  8
0
  6
Continuous
 62
     7
100
AcDbLine
 10
-115.0999989437117
 20
91.99999970196586
 30
0.0
 11
-106.1664421176486
 21
91.99999970196677
 31
0.0
  0
LINE
  5
A2
330
4E
100
AcDbEntity
  8
0
  6
Continuous
 62
     7
100
AcDbLine
 10
-115.0999989437117
 20
91.99999970196586
 30
0.0
 11
-122.8999989437067
 21
91.99999970196505
 31
0.0
  0
LINE
  5
A3
330
4E
100
AcDbEntity
  8
0
  6
Continuous
 62
     7
100
AcDbLine
 10
-134.9999989437133
 20
91.9999997019638
 30
0.0
 11
-134.9999989437137
 21
95.9999997019638
 31
0.0
  0
LINE
  5
A4
330
4E
100
AcDbEntity
  8
0
  6
Continuous
 62
     7
100
AcDbLine
 10
-134.9999989437137
 20
95.9999997019638
 30
0.0
 11
-131.8335557697705
 21
95.99999970196413
 31
0.0
  0
LINE
  5
A5
330
4E
100
AcDbEntity
  8
0
  6
Continuous
 62
     7
100
AcDbLine
 10
-102.9999989437136
 20
91.99999970196711
 30
0.0
 11
-102.999998943714
 21
95.99999970196711
 31
0.0
  0
LINE
  5
A6
330
4E
100
AcDbEntity
  8
0
  6
Continuous
 62
     7
100
AcDbLine
 10
-122.8999989437204
 20
95.99999970196505
 30
0.0
 11
-122.8999989437067
 21
91.99999970196505
 31
0.0
  0
LINE
  5
A7
330
4E
100
AcDbEntity
  8
0
  6
Continuous
 62
     7
100
AcDbLine
 10
-115.0999989437121
 20
95.99999970196586
 30
0.0
 11
-115.0999989437117
 21
91.99999970196586
 31
0.0
  0
LINE
  5
A8
330
4E
100
AcDbEntity
  8
0
  6
Continuous
 62
     7
100
AcDbLine
 10
-106.1664421176486
 20
91.99999970196677
 30
0.0
 11
-106.166442117649
 21
95.99999970196677
 31
0.0
  0
LINE
  5
A9
330
4E
100
AcDbEntity
  8
0
  6
Continuous
 62
     7
100
AcDbLine
 10
-134.9999989437133
 20
91.9999997019638
 30
0.0
 11
-131.8335557697701
 21
91.99999970196413
 31
0.0
  0
LINE
  5
AA
330
4E
100
AcDbEntity
  8
0
  6
Continuous
 62
     7
100
AcDbLine
 10
-122.8999989437204
 20
95.99999970196505
 30
0.0
 11
-131.8335557697705
 21
95.99999970196413
 31
0.0
  0
LINE
  5
AB
330
4E
100
AcDbEntity
  8
0
  6
Continuous
 62
     7
100
AcDbLine
 10
-115.0999989437121
 20
95.99999970196586
 30
0.0
 11
-122.8999989437204
 21
95.99999970196505
 31
0.0
  0
LINE
  5
AC
330
4E
100
AcDbEntity
  8
0
  6
Continuous
 62
     7
100
AcDbLine
 10
-102.999998943714
 20
95.99999970196711
 30
0.0
 11
-106.166442117649
 21
95.99999970196677
 31
0.0
  0
LINE
  5
AD
330
4E
100
AcDbEntity
  8
0
  6
Continuous
 62
     7
100
AcDbLine
 10
-115.0999989437121
 20
95.99999970196586
 30
0.0
 11
-106.166442117649
 21
95.99999970196677
 31
0.0
  0
LINE
  5
AE
330
4E
100
AcDbEntity
  8
0
  6
Continuous
 62
     7
100
AcDbLine
 10
-131.8335557697701
 20
91.99999970196413
 30
0.0
 11
-131.8335557697705
 21
95.99999970196413
 31
0.0
  0
LINE
  5
AF
330
4E
100
AcDbEntity
  8
0
  6
Continuous
 62
     7
100
AcDbLine
 10
-122.8999989437067
 20
91.99999970196505
 30
0.0
 11
-131.8335557697701
 21
91.99999970196413
 31
0.0
  0
ENDBLK
  5
50
330
4E
100
AcDbEntity
  8
0
100
AcDbBlockEnd
  0
BLOCK
  5
53
330
51
100
AcDbEntity
  8
0
100
AcDbBlockBegin
  2
Drfsicht1
 70
     0
 10
-118.9999989950218
 20
93.99999970197044
 30
0.0
  3
Drfsicht1
  1

  0
INSERT
  5
52
330
51
100
AcDbEntity
  8
0
100
AcDbBlockReference
  2
D-MSBV_2_5-select__2
 10
-134.9999989437137
 20
91.9999997019638
 30
0.0
  0
MTEXT
  5
B0
330
51
100
AcDbEntity
  8
1
 62
     6
100
AcDbMText
 10
-118.9999989950216
 20
86.99999970196859
 30
0.0
 40
5.0
 41
0.0
 71
     2
 72
     1
  1
 
  7
CONVERTER_11
 73
     1
 44
1.32052821128451
  0
DIMENSION
  5
BD
330
51
100
AcDbEntity
  8
1
100
AcDbDimension
  2
*D17
 10
-141.8335557697705
 20
95.99999970196413
 30
0.0
 11
-145.0835557697705
 21
94.44065601112798
 31
0.0
 70
    32
  1
<>
 71
     5
 42
-1.0
 53
90.0
  3
ME10_DIM_10
100
AcDbAlignedDimension
 13
-131.8335557697701
 23
91.99999970196413
 33
0.0
 14
-131.8335557697705
 24
95.99999970196413
 34
0.0
 50
90.0
100
AcDbRotatedDimension
  0
ENDBLK
  5
54
330
51
100
AcDbEntity
  8
0
100
AcDbBlockEnd
  0
BLOCK
  5
56
330
55
100
AcDbEntity
  8
0
100
AcDbBlockBegin
  2
D-MSBV_2_5-select__3
 70
     0
 10
-41.00000000000221
 20
126.0000003114676
 30
0.0
  3
D-MSBV_2_5-select__3
  1

  0
LINE
  5
BE
330
55
100
AcDbEntity
  8
0
  6
Continuous
 62
     7
100
AcDbLine
 10
-39.54553039589689
 20
126.0000003114676
 30
0.0
 11
-40.99999999999717
 21
132.3000003114731
 31
0.0
  0
LINE
  5
BF
330
55
100
AcDbEntity
  8
0
  6
Continuous
 62
     7
100
AcDbLine
 10
-40.99999999999717
 20
132.3000003114731
 30
0.0
 11
-41.00000000000221
 21
139.7339749076814
 31
0.0
  0
LINE
  5
C0
330
55
100
AcDbEntity
  8
0
  6
Continuous
 62
     7
100
AcDbLine
 10
-41.00000000000221
 20
139.7339749076814
 30
0.0
 11
-37.83355682606727
 21
145.2184153642237
 31
0.0
  0
LINE
  5
C1
330
55
100
AcDbEntity
  8
0
  6
Continuous
 62
     7
100
AcDbLine
 10
-28.90000000000412
 20
146.0000003114749
 30
0.0
 11
-37.83355682606727
 21
145.2184153642237
 31
0.0
  0
LINE
  5
C2
330
55
100
AcDbEntity
  8
0
  6
Continuous
 62
     7
100
AcDbLine
 10
-28.90000000000412
 20
146.0000003114749
 30
0.0
 11
-21.0999999999959
 21
146.0000003114802
 31
0.0
  0
LINE
  5
C3
330
55
100
AcDbEntity
  8
0
  6
Continuous
 62
     7
100
AcDbLine
 10
-21.0999999999959
 20
146.0000003114802
 30
0.0
 11
-12.16644317394571
 21
145.2184153642424
 31
0.0
  0
LINE
  5
C4
330
55
100
AcDbEntity
  8
0
  6
Continuous
 62
     7
100
AcDbLine
 10
-10.45446960408917
 20
126.0000003114875
 30
0.0
 11
-8.99999999999748
 21
132.3000003114949
 31
0.0
  0
LINE
  5
C5
330
55
100
AcDbEntity
  8
0
  6
Continuous
 62
     7
100
AcDbLine
 10
-8.99999999999748
 20
132.3000003114949
 30
0.0
 11
-9.00000000000257
 21
139.7339749077032
 31
0.0
  0
LINE
  5
C6
330
55
100
AcDbEntity
  8
0
  6
Continuous
 62
     7
100
AcDbLine
 10
-39.54553039589689
 20
126.0000003114676
 30
0.0
 11
-10.45446960408917
 21
126.0000003114875
 31
0.0
  0
LINE
  5
C7
330
55
100
AcDbEntity
  8
0
  6
Continuous
 62
     7
100
AcDbLine
 10
-9.00000000000257
 20
139.7339749077032
 30
0.0
 11
-12.16644317394571
 21
145.2184153642424
 31
0.0
  0
ENDBLK
  5
57
330
55
100
AcDbEntity
  8
0
100
AcDbBlockEnd
  0
BLOCK
  5
5A
330
58
100
AcDbEntity
  8
0
100
AcDbBlockBegin
  2
Rckans1
 70
     0
 10
-24.99999994869206
 20
136.0000000000004
 30
0.0
  3
Rckans1
  1

  0
INSERT
  5
59
330
58
100
AcDbEntity
  8
0
100
AcDbBlockReference
  2
D-MSBV_2_5-select__3
 10
-41.00000000000221
 20
126.0000003114676
 30
0.0
  0
MTEXT
  5
C8
330
58
100
AcDbEntity
  8
1
 62
     6
100
AcDbMText
 10
-24.99999994869224
 20
120.9999997019768
 30
0.0
 40
5.0
 41
0.0
 71
     2
 72
     1
  1
 
  7
CONVERTER_11
 73
     1
 44
1.32052821128451
  0
ENDBLK
  5
5B
330
58
100
AcDbEntity
  8
0
100
AcDbBlockEnd
  0
BLOCK
  5
5D
330
5C
100
AcDbEntity
  8
0
100
AcDbBlockBegin
  2
D-MSBV_2_5-select__4
 70
     0
 10
-69.99999947184159
 20
126.0000003114875
 30
0.0
  3
D-MSBV_2_5-select__4
  1

  0
LINE
  5
C9
330
5C
100
AcDbEntity
  8
0
  6
Continuous
 62
     7
100
AcDbLine
 10
-65.99999947184159
 20
146.0000003114813
 30
0.0
 11
-65.99999947184067
 21
145.2184153642424
 31
0.0
  0
LINE
  5
CA
330
5C
100
AcDbEntity
  8
0
  6
Continuous
 62
     7
100
AcDbLine
 10
-65.99999947184034
 20
139.7339749077032
 30
0.0
 11
-65.99999947184067
 21
145.2184153642424
 31
0.0
  0
LINE
  5
CB
330
5C
100
AcDbEntity
  8
0
  6
Continuous
 62
     7
100
AcDbLine
 10
-65.99999947184034
 20
132.3000003114948
 30
0.0
 11
-65.99999947184034
 21
139.7339749077032
 31
0.0
  0
LINE
  5
CC
330
5C
100
AcDbEntity
  8
0
  6
Continuous
 62
     7
100
AcDbLine
 10
-65.99999947184048
 20
126.0000003114875
 30
0.0
 11
-65.99999947184034
 21
132.3000003114948
 31
0.0
  0
LINE
  5
CD
330
5C
100
AcDbEntity
  8
0
  6
Continuous
 62
     7
100
AcDbLine
 10
-65.99999947184034
 20
139.7339749077032
 30
0.0
 11
-69.99999947184034
 21
139.7339749077032
 31
0.0
  0
LINE
  5
CE
330
5C
100
AcDbEntity
  8
0
  6
Continuous
 62
     7
100
AcDbLine
 10
-69.99999947184159
 20
146.0000003114802
 30
0.0
 11
-65.99999947184159
 21
146.0000003114813
 31
0.0
  0
LINE
  5
CF
330
5C
100
AcDbEntity
  8
0
  6
Continuous
 62
     7
100
AcDbLine
 10
-69.99999947184159
 20
146.0000003114802
 30
0.0
 11
-69.99999947184067
 21
145.2184153642424
 31
0.0
  0
LINE
  5
D0
330
5C
100
AcDbEntity
  8
0
  6
Continuous
 62
     7
100
AcDbLine
 10
-69.99999947184034
 20
139.7339749077032
 30
0.0
 11
-69.99999947184067
 21
145.2184153642424
 31
0.0
  0
LINE
  5
D1
330
5C
100
AcDbEntity
  8
0
  6
Continuous
 62
     7
100
AcDbLine
 10
-65.99999947184067
 20
145.2184153642424
 30
0.0
 11
-69.99999947184067
 21
145.2184153642424
 31
0.0
  0
LINE
  5
D2
330
5C
100
AcDbEntity
  8
0
  6
Continuous
 62
     7
100
AcDbLine
 10
-69.99999947184048
 20
126.0000003114875
 30
0.0
 11
-69.99999947184034
 21
132.3000003114948
 31
0.0
  0
LINE
  5
D3
330
5C
100
AcDbEntity
  8
0
  6
Continuous
 62
     7
100
AcDbLine
 10
-69.99999947184034
 20
132.3000003114948
 30
0.0
 11
-65.99999947184034
 21
132.3000003114948
 31
0.0
  0
LINE
  5
D4
330
5C
100
AcDbEntity
  8
0
  6
Continuous
 62
     7
100
AcDbLine
 10
-65.99999947184048
 20
126.0000003114875
 30
0.0
 11
-69.99999947184048
 21
126.0000003114875
 31
0.0
  0
LINE
  5
D5
330
5C
100
AcDbEntity
  8
0
  6
Continuous
 62
     7
100
AcDbLine
 10
-69.99999947184034
 20
132.3000003114948
 30
0.0
 11
-69.99999947184034
 21
139.7339749077032
 31
0.0
  0
ENDBLK
  5
5E
330
5C
100
AcDbEntity
  8
0
100
AcDbBlockEnd
  0
BLOCK
  5
61
330
5F
100
AcDbEntity
  8
0
100
AcDbBlockBegin
  2
SA_Links1
 70
     0
 10
-67.99999947184699
 20
136.0000000000004
 30
0.0
  3
SA_Links1
  1

  0
INSERT
  5
60
330
5F
100
AcDbEntity
  8
0
100
AcDbBlockReference
  2
D-MSBV_2_5-select__4
 10
-69.99999947184159
 20
126.0000003114875
 30
0.0
  0
MTEXT
  5
D6
330
5F
100
AcDbEntity
  8
1
 62
     6
100
AcDbMText
 10
-67.99999947184699
 20
120.9999997019768
 30
0.0
 40
5.0
 41
0.0
 71
     2
 72
     1
  1
 
  7
CONVERTER_11
 73
     1
 44
1.32052821128451
  0
ENDBLK
  5
62
330
5F
100
AcDbEntity
  8
0
100
AcDbBlockEnd
  0
BLOCK
  5
64
330
63
100
AcDbEntity
  8
0
100
AcDbBlockBegin
  2
D-MSBV_2_5-select__5
 70
     0
 10
-165.9999985181962
 20
126.0000003114673
 30
0.0
  3
D-MSBV_2_5-select__5
  1

  0
LINE
  5
D7
330
63
100
AcDbEntity
  8
0
  6
Continuous
 62
     7
100
AcDbLine
 10
-165.999998518195
 20
139.733974907681
 30
0.0
 11
-165.9999985181953
 21
145.2184153642234
 31
0.0
  0
LINE
  5
D8
330
63
100
AcDbEntity
  8
0
  6
Continuous
 62
     7
100
AcDbLine
 10
-165.9999985181962
 20
146.0000003114745
 30
0.0
 11
-165.9999985181953
 21
145.2184153642234
 31
0.0
  0
LINE
  5
D9
330
63
100
AcDbEntity
  8
0
  6
Continuous
 62
     7
100
AcDbLine
 10
-161.9999985181962
 20
146.0000003114745
 30
0.0
 11
-161.9999985181953
 21
145.2184153642234
 31
0.0
  0
LINE
  5
DA
330
63
100
AcDbEntity
  8
0
  6
Continuous
 62
     7
100
AcDbLine
 10
-161.9999985181962
 20
146.0000003114745
 30
0.0
 11
-165.9999985181962
 21
146.0000003114745
 31
0.0
  0
LINE
  5
DB
330
63
100
AcDbEntity
  8
0
  6
Continuous
 62
     7
100
AcDbLine
 10
-165.9999985181953
 20
145.2184153642234
 30
0.0
 11
-161.9999985181953
 21
145.2184153642234
 31
0.0
  0
LINE
  5
DC
330
63
100
AcDbEntity
  8
0
  6
Continuous
 62
     7
100
AcDbLine
 10
-161.999998518195
 20
139.733974907681
 30
0.0
 11
-161.9999985181953
 21
145.2184153642234
 31
0.0
  0
LINE
  5
DD
330
63
100
AcDbEntity
  8
0
  6
Continuous
 62
     7
100
AcDbLine
 10
-161.999998518195
 20
132.3000003114727
 30
0.0
 11
-161.999998518195
 21
139.733974907681
 31
0.0
  0
LINE
  5
DE
330
63
100
AcDbEntity
  8
0
  6
Continuous
 62
     7
100
AcDbLine
 10
-161.9999985181951
 20
126.0000003114673
 30
0.0
 11
-161.999998518195
 21
132.3000003114727
 31
0.0
  0
LINE
  5
DF
330
63
100
AcDbEntity
  8
0
  6
Continuous
 62
     7
100
AcDbLine
 10
-165.999998518195
 20
139.733974907681
 30
0.0
 11
-161.999998518195
 21
139.733974907681
 31
0.0
  0
LINE
  5
E0
330
63
100
AcDbEntity
  8
0
  6
Continuous
 62
     7
100
AcDbLine
 10
-165.9999985181951
 20
126.0000003114673
 30
0.0
 11
-161.9999985181951
 21
126.0000003114673
 31
0.0
  0
LINE
  5
E1
330
63
100
AcDbEntity
  8
0
  6
Continuous
 62
     7
100
AcDbLine
 10
-165.9999985181951
 20
126.0000003114673
 30
0.0
 11
-165.999998518195
 21
132.3000003114727
 31
0.0
  0
LINE
  5
E2
330
63
100
AcDbEntity
  8
0
  6
Continuous
 62
     7
100
AcDbLine
 10
-161.999998518195
 20
132.3000003114727
 30
0.0
 11
-165.999998518195
 21
132.3000003114727
 31
0.0
  0
LINE
  5
E3
330
63
100
AcDbEntity
  8
0
  6
Continuous
 62
     7
100
AcDbLine
 10
-165.999998518195
 20
132.3000003114727
 30
0.0
 11
-165.999998518195
 21
139.733974907681
 31
0.0
  0
ENDBLK
  5
65
330
63
100
AcDbEntity
  8
0
100
AcDbBlockEnd
  0
BLOCK
  5
68
330
66
100
AcDbEntity
  8
0
100
AcDbBlockBegin
  2
SA_Rechts1
 70
     0
 10
-163.9999985181916
 20
136.0
 30
0.0
  3
SA_Rechts1
  1

  0
INSERT
  5
67
330
66
100
AcDbEntity
  8
0
100
AcDbBlockReference
  2
D-MSBV_2_5-select__5
 10
-165.9999985181962
 20
126.0000003114673
 30
0.0
  0
MTEXT
  5
E4
330
66
100
AcDbEntity
  8
1
 62
     6
100
AcDbMText
 10
-163.9999985181916
 20
120.9999997019768
 30
0.0
 40
5.0
 41
0.0
 71
     2
 72
     1
  1
 
  7
CONVERTER_11
 73
     1
 44
1.32052821128451
  0
ENDBLK
  5
69
330
66
100
AcDbEntity
  8
0
100
AcDbBlockEnd
  0
BLOCK
  5
6B
330
6A
100
AcDbEntity
  8
0
100
AcDbBlockBegin
  2
D-MSBV_2_5-select__6
 70
     0
 10
-134.9999989437208
 20
126.0000003114672
 30
0.0
  3
D-MSBV_2_5-select__6
  1

  0
LINE
  5
E5
330
6A
100
AcDbEntity
  8
0
  6
Continuous
 62
     7
100
AcDbLine
 10
-104.4544685478214
 20
126.0000003114672
 30
0.0
 11
-133.5455293396291
 21
126.0000003114871
 31
0.0
  0
LINE
  5
E6
330
6A
100
AcDbEntity
  8
0
  6
Continuous
 62
     7
100
AcDbLine
 10
-133.5455293396291
 20
126.0000003114871
 30
0.0
 11
-134.9999989437208
 21
132.3000003114945
 31
0.0
  0
LINE
  5
E7
330
6A
100
AcDbEntity
  8
0
  6
Continuous
 62
     7
100
AcDbLine
 10
-134.9999989437208
 20
132.3000003114945
 30
0.0
 11
-134.9999989437156
 21
139.7339749077028
 31
0.0
  0
LINE
  5
E8
330
6A
100
AcDbEntity
  8
0
  6
Continuous
 62
     7
100
AcDbLine
 10
-102.999998943716
 20
139.733974907681
 30
0.0
 11
-106.166442117651
 21
145.2184153642233
 31
0.0
  0
LINE
  5
E9
330
6A
100
AcDbEntity
  8
0
  6
Continuous
 62
     7
100
AcDbLine
 10
-122.8999989437091
 20
146.000000311481
 30
0.0
 11
-131.8335557697725
 21
145.218415364242
 31
0.0
  0
LINE
  5
EA
330
6A
100
AcDbEntity
  8
0
  6
Continuous
 62
     7
100
AcDbLine
 10
-115.0999989437141
 20
146.0000003114745
 30
0.0
 11
-122.8999989437091
 21
146.000000311481
 31
0.0
  0
LINE
  5
EB
330
6A
100
AcDbEntity
  8
0
  6
Continuous
 62
     7
100
AcDbLine
 10
-115.0999989437141
 20
146.0000003114745
 30
0.0
 11
-106.166442117651
 21
145.2184153642233
 31
0.0
  0
LINE
  5
EC
330
6A
100
AcDbEntity
  8
0
  6
Continuous
 62
     7
100
AcDbLine
 10
-104.4544685478214
 20
126.0000003114672
 30
0.0
 11
-102.9999989437211
 21
132.3000003114727
 31
0.0
  0
LINE
  5
ED
330
6A
100
AcDbEntity
  8
0
  6
Continuous
 62
     7
100
AcDbLine
 10
-102.9999989437211
 20
132.3000003114727
 30
0.0
 11
-102.999998943716
 21
139.733974907681
 31
0.0
  0
LINE
  5
EE
330
6A
100
AcDbEntity
  8
0
  6
Continuous
 62
     7
100
AcDbLine
 10
-134.9999989437156
 20
139.7339749077028
 30
0.0
 11
-131.8335557697725
 21
145.218415364242
 31
0.0
  0
ENDBLK
  5
6C
330
6A
100
AcDbEntity
  8
0
100
AcDbBlockEnd
  0
BLOCK
  5
6F
330
6D
100
AcDbEntity
  8
0
100
AcDbBlockBegin
  2
Vordans1
 70
     0
 10
-118.9999989950218
 20
136.0
 30
0.0
  3
Vordans1
  1

  0
INSERT
  5
6E
330
6D
100
AcDbEntity
  8
0
100
AcDbBlockReference
  2
D-MSBV_2_5-select__6
 10
-134.9999989437208
 20
126.0000003114672
 30
0.0
  0
MTEXT
  5
EF
330
6D
100
AcDbEntity
  8
1
 62
     6
100
AcDbMText
 10
-118.9999989950216
 20
120.9999997019768
 30
0.0
 40
5.0
 41
0.0
 71
     2
 72
     1
  1
 
  7
CONVERTER_11
 73
     1
 44
1.32052821128451
  0
DIMENSION
  5
FA
330
6D
100
AcDbEntity
  8
1
100
AcDbDimension
  2
*D18
 10
-134.9999989437208
 20
113.782527168384
 30
0.0
 11
-118.2335269040511
 21
117.532527168384
 31
0.0
 70
    32
  1
<>
 71
     5
 42
-1.0
 53
0.00013888888889
  3
ME10_DIM_11
100
AcDbAlignedDimension
 13
-102.9999989437211
 23
132.3000003114727
 33
0.0
 14
-134.9999989437208
 24
132.3000003114945
 34
0.0
100
AcDbRotatedDimension
  0
DIMENSION
  5
105
330
6D
100
AcDbEntity
  8
1
100
AcDbDimension
  2
*D19
 10
-146.1367152439738
 20
126.0000003114672
 30
0.0
 11
-149.8867152439738
 21
135.6434109031657
 31
0.0
 70
    32
  1
<>
 71
     5
 42
-1.0
 53
90.0
  3
ME10_DIM_12
100
AcDbAlignedDimension
 13
-115.0999989437141
 23
146.0000003114745
 33
0.0
 14
-104.4544685478214
 24
126.0000003114672
 34
0.0
 50
90.0
100
AcDbRotatedDimension
  0
ENDBLK
  5
70
330
6D
100
AcDbEntity
  8
0
100
AcDbBlockEnd
  0
BLOCK
  5
72
330
71
100
AcDbEntity
  8
0
100
AcDbBlockBegin
  2
_rahmen
 70
     0
 10
64.42820372931978
 20
-4.7631396345181
 30
0.0
  3
_rahmen
  1

  0
LINE
  5
106
330
71
100
AcDbEntity
  8
1
  6
Continuous
 62
     6
100
AcDbLine
 10
-65.11660079743024
 20
25.73686036548202
 30
0.0
 11
64.42820372932147
 21
25.73686036548202
 31
0.0
  0
LINE
  5
107
330
71
100
AcDbEntity
  8
1
  6
Continuous
 62
     7
100
AcDbLine
 10
-46.91660079743022
 20
4.48686036548202
 30
0.0
 11
-28.71660079743032
 21
4.48686036548202
 31
0.0
  0
LINE
  5
108
330
71
100
AcDbEntity
  8
1
  6
Continuous
 62
     6
100
AcDbLine
 10
-46.91660079743022
 20
0.23686036548202
 30
0.0
 11
-65.11660079743024
 21
0.2368603654819
 31
0.0
  0
LINE
  5
109
330
71
100
AcDbEntity
  8
1
  6
Continuous
 62
     7
100
AcDbLine
 10
-46.91660079743022
 20
4.48686036548202
 30
0.0
 11
-46.91660079743022
 21
0.23686036548202
 31
0.0
  0
LINE
  5
10A
330
71
100
AcDbEntity
  8
1
  6
Continuous
 62
     7
100
AcDbLine
 10
-28.71660079743032
 20
4.48686036548202
 30
0.0
 11
-28.71660079743032
 21
0.2368603654819
 31
0.0
  0
LINE
  5
10B
330
71
100
AcDbEntity
  8
1
  6
Continuous
 62
     7
100
AcDbLine
 10
-65.11660079743024
 20
4.4868603654819
 30
0.0
 11
-65.11660079743024
 21
0.2368603654819
 31
0.0
  0
LINE
  5
10C
330
71
100
AcDbEntity
  8
1
  6
Continuous
 62
     7
100
AcDbLine
 10
-65.11660079743024
 20
4.4868603654819
 30
0.0
 11
-46.91660079743022
 21
4.48686036548202
 31
0.0
  0
LINE
  5
10D
330
71
100
AcDbEntity
  8
1
  6
Continuous
 62
     2
100
AcDbLine
 10
-55.87994591086763
 20
23.86186036548193
 30
0.0
 11
-55.87994591086763
 21
18.86186036548193
 31
0.0
  0
LINE
  5
10E
330
71
100
AcDbEntity
  8
1
  6
Continuous
 62
     2
100
AcDbLine
 10
-55.87994591086763
 20
18.86186036548193
 30
0.0
 11
-60.87994591086763
 21
20.11186036548193
 31
0.0
  0
LINE
  5
10F
330
71
100
AcDbEntity
  8
1
  6
Continuous
 62
     2
100
AcDbLine
 10
-60.87994591086763
 20
20.11186036548193
 30
0.0
 11
-60.87994591086763
 21
22.61186036548193
 31
0.0
  0
LINE
  5
110
330
71
100
AcDbEntity
  8
1
  6
Continuous
 62
     2
100
AcDbLine
 10
-60.87994591086763
 20
22.61186036548193
 30
0.0
 11
-55.87994591086763
 21
23.86186036548193
 31
0.0
  0
LINE
  5
111
330
71
100
AcDbEntity
  8
1
  6
Continuous
 62
     6
100
AcDbLine
 10
-187.5717962706785
 20
0.23686036548202
 30
0.0
 11
-222.5717962706783
 21
0.23686036548202
 31
0.0
  0
LINE
  5
112
330
71
100
AcDbEntity
  8
1
  6
Continuous
 62
     6
100
AcDbLine
 10
64.42820372932147
 20
17.23686036548202
 30
0.0
 11
64.42820372932107
 21
8.73686036548202
 31
0.0
  0
LINE
  5
113
330
71
100
AcDbEntity
  8
1
  6
Continuous
 62
     6
100
AcDbLine
 10
-28.71660079743032
 20
0.2368603654819
 30
0.0
 11
-29.07179627068024
 21
0.23686036548202
 31
0.0
  0
LINE
  5
114
330
71
100
AcDbEntity
  8
1
  6
Continuous
 62
     6
100
AcDbLine
 10
-181.3717962706805
 20
0.2368603654819
 30
0.0
 11
-187.5717962706785
 21
0.23686036548202
 31
0.0
  0
LINE
  5
115
330
71
100
AcDbEntity
  8
1
  6
Continuous
 62
     7
100
AcDbLine
 10
-28.71660079743032
 20
17.23686036548202
 30
0.0
 11
-28.71660079743032
 21
4.48686036548202
 31
0.0
  0
LINE
  5
116
330
71
100
AcDbEntity
  8
1
  6
Continuous
 62
     7
100
AcDbLine
 10
-65.11660079743024
 20
17.23686036548202
 30
0.0
 11
-65.11660079743024
 21
4.4868603654819
 31
0.0
  0
LINE
  5
117
330
71
100
AcDbEntity
  8
1
  6
Continuous
 62
     6
100
AcDbLine
 10
-79.07179627068021
 20
0.23686036548202
 30
0.0
 11
-129.0717962706804
 21
0.23686036548202
 31
0.0
  0
LINE
  5
118
330
71
100
AcDbEntity
  8
1
  6
Continuous
 62
     6
100
AcDbLine
 10
-181.3717962706805
 20
0.2368603654819
 30
0.0
 11
-179.0717962706802
 21
0.23686036548202
 31
0.0
  0
LINE
  5
119
330
71
100
AcDbEntity
  8
1
  6
Continuous
 62
     6
100
AcDbLine
 10
-28.71660079743032
 20
0.2368603654819
 30
0.0
 11
20.92820372931976
 21
0.23686036548202
 31
0.0
  0
LINE
  5
11A
330
71
100
AcDbEntity
  8
1
  6
Continuous
 62
     6
100
AcDbLine
 10
64.42820372931978
 20
0.23686036548202
 30
0.0
 11
64.42820372932107
 21
8.73686036548202
 31
0.0
  0
LINE
  5
11B
330
71
100
AcDbEntity
  8
1
  6
Continuous
 62
     2
100
AcDbLine
 10
-227.5717962706793
 20
0.23686036548202
 30
0.0
 11
-227.5717962706793
 21
-4.7631396345181
 31
0.0
  0
LINE
  5
11C
330
71
100
AcDbEntity
  8
1
  6
Continuous
 62
     2
100
AcDbLine
 10
-222.5717962706783
 20
0.23686036548202
 30
0.0
 11
-227.5717962706793
 21
0.23686036548202
 31
0.0
  0
LINE
  5
11D
330
71
100
AcDbEntity
  8
1
  6
Continuous
 62
     2
100
AcDbLine
 10
-222.5717962706783
 20
-4.7631396345181
 30
0.0
 11
-179.0717962706802
 21
-4.7631396345181
 31
0.0
  0
LINE
  5
11E
330
71
100
AcDbEntity
  8
1
  6
Continuous
 62
     2
100
AcDbLine
 10
-222.5717962706783
 20
0.23686036548202
 30
0.0
 11
-222.5717962706783
 21
-4.7631396345181
 31
0.0
  0
LINE
  5
11F
330
71
100
AcDbEntity
  8
1
  6
Continuous
 62
     2
100
AcDbLine
 10
20.92820372931976
 20
-4.7631396345181
 30
0.0
 11
-29.07179627068024
 21
-4.7631396345181
 31
0.0
  0
LINE
  5
120
330
71
100
AcDbEntity
  8
1
  6
Continuous
 62
     2
100
AcDbLine
 10
20.92820372931976
 20
-4.7631396345181
 30
0.0
 11
20.92820372931976
 21
0.23686036548202
 31
0.0
  0
LINE
  5
121
330
71
100
AcDbEntity
  8
1
  6
Continuous
 62
     2
100
AcDbLine
 10
-29.07179627068024
 20
-4.7631396345181
 30
0.0
 11
-29.07179627068024
 21
0.23686036548202
 31
0.0
  0
LINE
  5
122
330
71
100
AcDbEntity
  8
1
  6
Continuous
 62
     2
100
AcDbLine
 10
-79.07179627068021
 20
-4.7631396345181
 30
0.0
 11
-29.07179627068024
 21
-4.7631396345181
 31
0.0
  0
LINE
  5
123
330
71
100
AcDbEntity
  8
1
  6
Continuous
 62
     2
100
AcDbLine
 10
-79.07179627068021
 20
-4.7631396345181
 30
0.0
 11
-79.07179627068021
 21
0.23686036548202
 31
0.0
  0
LINE
  5
124
330
71
100
AcDbEntity
  8
1
  6
Continuous
 62
     2
100
AcDbLine
 10
-129.0717962706804
 20
-4.7631396345181
 30
0.0
 11
-79.07179627068021
 21
-4.7631396345181
 31
0.0
  0
LINE
  5
125
330
71
100
AcDbEntity
  8
1
  6
Continuous
 62
     2
100
AcDbLine
 10
-129.0717962706804
 20
-4.7631396345181
 30
0.0
 11
-129.0717962706804
 21
0.23686036548202
 31
0.0
  0
LINE
  5
126
330
71
100
AcDbEntity
  8
1
  6
Continuous
 62
     2
100
AcDbLine
 10
-179.0717962706802
 20
-4.7631396345181
 30
0.0
 11
-129.0717962706804
 21
-4.7631396345181
 31
0.0
  0
LINE
  5
127
330
71
100
AcDbEntity
  8
1
  6
Continuous
 62
     2
100
AcDbLine
 10
-179.0717962706802
 20
-4.7631396345181
 30
0.0
 11
-179.0717962706802
 21
0.23686036548202
 31
0.0
  0
LINE
  5
128
330
71
100
AcDbEntity
  8
1
  6
Continuous
 62
     6
100
AcDbLine
 10
-222.5717962706785
 20
50.23686036548213
 30
0.0
 11
-222.5717962706783
 21
0.23686036548202
 31
0.0
  0
LINE
  5
129
330
71
100
AcDbEntity
  8
1
  6
Continuous
 62
     2
100
AcDbLine
 10
-227.5717962706793
 20
50.23686036548213
 30
0.0
 11
-227.5717962706793
 21
0.23686036548202
 31
0.0
  0
LINE
  5
12A
330
71
100
AcDbEntity
  8
1
  6
Continuous
 62
     2
100
AcDbLine
 10
-227.5717962706793
 20
50.23686036548213
 30
0.0
 11
-222.5717962706785
 21
50.23686036548213
 31
0.0
  0
LINE
  5
12B
330
71
100
AcDbEntity
  8
1
  6
Continuous
 62
     6
100
AcDbLine
 10
-222.5717962706787
 20
100.2368603654819
 30
0.0
 11
-222.5717962706785
 21
50.23686036548213
 31
0.0
  0
LINE
  5
12C
330
71
100
AcDbEntity
  8
1
  6
Continuous
 62
     2
100
AcDbLine
 10
-227.5717962706793
 20
100.2368603654819
 30
0.0
 11
-227.5717962706793
 21
50.23686036548213
 31
0.0
  0
LINE
  5
12D
330
71
100
AcDbEntity
  8
1
  6
Continuous
 62
     2
100
AcDbLine
 10
-227.5717962706793
 20
100.2368603654819
 30
0.0
 11
-222.5717962706787
 21
100.2368603654819
 31
0.0
  0
LINE
  5
12E
330
71
100
AcDbEntity
  8
1
  6
Continuous
 62
     6
100
AcDbLine
 10
-222.5717962706792
 20
150.236860365482
 30
0.0
 11
-222.5717962706787
 21
100.2368603654819
 31
0.0
  0
LINE
  5
12F
330
71
100
AcDbEntity
  8
1
  6
Continuous
 62
     2
100
AcDbLine
 10
-227.5717962706793
 20
150.236860365482
 30
0.0
 11
-227.5717962706793
 21
100.2368603654819
 31
0.0
  0
LINE
  5
130
330
71
100
AcDbEntity
  8
1
  6
Continuous
 62
     2
100
AcDbLine
 10
-227.5717962706793
 20
150.236860365482
 30
0.0
 11
-222.5717962706792
 21
150.236860365482
 31
0.0
  0
LINE
  5
131
330
71
100
AcDbEntity
  8
1
  6
Continuous
 62
     6
100
AcDbLine
 10
-222.5717962706793
 20
185.236860365482
 30
0.0
 11
-222.5717962706792
 21
150.236860365482
 31
0.0
  0
LINE
  5
132
330
71
100
AcDbEntity
  8
1
  6
Continuous
 62
     2
100
AcDbLine
 10
-227.5717962706793
 20
205.236860365482
 30
0.0
 11
-227.5717962706793
 21
150.236860365482
 31
0.0
  0
LINE
  5
133
330
71
100
AcDbEntity
  8
1
  6
Continuous
 62
     2
100
AcDbLine
 10
-227.5717962706793
 20
-4.7631396345181
 30
0.0
 11
-222.5717962706783
 21
-4.7631396345181
 31
0.0
  0
LINE
  5
134
330
71
100
AcDbEntity
  8
1
  6
Continuous
 62
     2
100
AcDbLine
 10
-79.07179627068021
 20
205.236860365482
 30
0.0
 11
-79.07179627068021
 21
196.0281685207807
 31
0.0
  0
LINE
  5
135
330
71
100
AcDbEntity
  8
1
  6
Continuous
 62
     2
100
AcDbLine
 10
-79.07179627068021
 20
205.236860365482
 30
0.0
 11
-227.5717962706793
 21
205.236860365482
 31
0.0
  0
LINE
  5
136
330
71
100
AcDbEntity
  8
1
  6
Continuous
 62
     2
100
AcDbLine
 10
69.42820372931877
 20
0.23686036548202
 30
0.0
 11
69.42820372931877
 21
50.23686036548213
 31
0.0
  0
LINE
  5
137
330
71
100
AcDbEntity
  8
1
  6
Continuous
 62
     2
100
AcDbLine
 10
69.42820372931877
 20
150.236860365482
 30
0.0
 11
69.42820372931877
 21
205.236860365482
 31
0.0
  0
LINE
  5
138
330
71
100
AcDbEntity
  8
1
  6
Continuous
 62
     6
100
AcDbLine
 10
64.42820372931897
 20
150.236860365482
 30
0.0
 11
64.42820372931877
 21
185.236860365482
 31
0.0
  0
LINE
  5
139
330
71
100
AcDbEntity
  8
1
  6
Continuous
 62
     2
100
AcDbLine
 10
64.42820372931897
 20
150.236860365482
 30
0.0
 11
69.42820372931877
 21
150.236860365482
 31
0.0
  0
LINE
  5
13A
330
71
100
AcDbEntity
  8
1
  6
Continuous
 62
     2
100
AcDbLine
 10
69.42820372931877
 20
100.2368603654819
 30
0.0
 11
69.42820372931877
 21
150.236860365482
 31
0.0
  0
LINE
  5
13B
330
71
100
AcDbEntity
  8
1
  6
Continuous
 62
     6
100
AcDbLine
 10
64.42820372932017
 20
100.2368603654819
 30
0.0
 11
64.42820372931897
 21
150.236860365482
 31
0.0
  0
LINE
  5
13C
330
71
100
AcDbEntity
  8
1
  6
Continuous
 62
     2
100
AcDbLine
 10
64.42820372932017
 20
100.2368603654819
 30
0.0
 11
69.42820372931877
 21
100.2368603654819
 31
0.0
  0
LINE
  5
13D
330
71
100
AcDbEntity
  8
1
  6
Continuous
 62
     2
100
AcDbLine
 10
69.42820372931877
 20
50.23686036548213
 30
0.0
 11
69.42820372931877
 21
100.2368603654819
 31
0.0
  0
LINE
  5
13E
330
71
100
AcDbEntity
  8
1
  6
Continuous
 62
     6
100
AcDbLine
 10
64.42820372932067
 20
50.23686036548213
 30
0.0
 11
64.42820372932017
 21
100.2368603654819
 31
0.0
  0
LINE
  5
13F
330
71
100
AcDbEntity
  8
1
  6
Continuous
 62
     2
100
AcDbLine
 10
64.42820372932067
 20
50.23686036548213
 30
0.0
 11
69.42820372931877
 21
50.23686036548213
 31
0.0
  0
LINE
  5
140
330
71
100
AcDbEntity
  8
1
  6
Continuous
 62
     6
100
AcDbLine
 10
64.42820372931877
 20
185.236860365482
 30
0.0
 11
-222.5717962706793
 21
185.236860365482
 31
0.0
  0
LINE
  5
141
330
71
100
AcDbEntity
  8
1
  6
Continuous
 62
     2
100
AcDbLine
 10
69.42820372931877
 20
205.236860365482
 30
0.0
 11
-79.07179627068021
 21
205.236860365482
 31
0.0
  0
LINE
  5
142
330
71
100
AcDbEntity
  8
1
  6
Continuous
 62
     6
100
AcDbLine
 10
64.42820372932147
 20
17.23686036548202
 30
0.0
 11
64.42820372932067
 21
50.23686036548213
 31
0.0
  0
LINE
  5
143
330
71
100
AcDbEntity
  8
1
  6
Continuous
 62
     2
100
AcDbLine
 10
64.42820372931978
 20
-4.7631396345181
 30
0.0
 11
20.92820372931976
 21
-4.7631396345181
 31
0.0
  0
LINE
  5
144
330
71
100
AcDbEntity
  8
1
  6
Continuous
 62
     2
100
AcDbLine
 10
69.42820372931877
 20
-4.7631396345181
 30
0.0
 11
64.42820372931978
 21
-4.7631396345181
 31
0.0
  0
LINE
  5
145
330
71
100
AcDbEntity
  8
1
  6
Continuous
 62
     2
100
AcDbLine
 10
69.42820372931877
 20
-4.7631396345181
 30
0.0
 11
69.42820372931877
 21
0.23686036548202
 31
0.0
  0
LINE
  5
146
330
71
100
AcDbEntity
  8
1
  6
Continuous
 62
     6
100
AcDbLine
 10
-65.11660079743024
 20
17.23686036548202
 30
0.0
 11
-28.71660079743032
 21
17.23686036548202
 31
0.0
  0
LINE
  5
147
330
71
100
AcDbEntity
  8
1
  6
Continuous
 62
     2
100
AcDbLine
 10
64.42820372931978
 20
0.23686036548202
 30
0.0
 11
64.42820372931978
 21
-4.7631396345181
 31
0.0
  0
LINE
  5
148
330
71
100
AcDbEntity
  8
1
  6
Continuous
 62
     2
100
AcDbLine
 10
64.42820372931978
 20
0.23686036548202
 30
0.0
 11
69.42820372931877
 21
0.23686036548202
 31
0.0
  0
LINE
  5
149
330
71
100
AcDbEntity
  8
1
  6
Continuous
 62
     6
100
AcDbLine
 10
-29.07179627068024
 20
0.23686036548202
 30
0.0
 11
-46.91660079743022
 21
0.23686036548202
 31
0.0
  0
LINE
  5
14A
330
71
100
AcDbEntity
  8
1
  6
Continuous
 62
     6
100
AcDbLine
 10
20.92820372931976
 20
0.23686036548202
 30
0.0
 11
64.42820372931978
 21
0.23686036548202
 31
0.0
  0
LINE
  5
14B
330
71
100
AcDbEntity
  8
1
  6
Continuous
 62
     6
100
AcDbLine
 10
-129.0717962706804
 20
0.23686036548202
 30
0.0
 11
-134.1166007974302
 21
0.23686036548202
 31
0.0
  0
LINE
  5
14C
330
71
100
AcDbEntity
  8
1
  6
Continuous
 62
     6
100
AcDbLine
 10
-79.07179627068021
 20
0.23686036548202
 30
0.0
 11
-65.11660079743024
 21
0.2368603654819
 31
0.0
  0
LINE
  5
14D
102
{ACAD_REACTORS
330
237
330
238
102
}
330
71
100
AcDbEntity
  8
0
  6
Continuous
 62
     2
100
AcDbLine
 10
-57.60197485528343
 20
12.30937512169413
 30
0.0
 11
-57.60197485528343
 21
12.91491041020092
 31
0.0
  0
LINE
  5
14E
102
{ACAD_REACTORS
330
237
330
238
102
}
330
71
100
AcDbEntity
  8
0
  6
Continuous
 62
     2
100
AcDbLine
 10
-57.60197485528343
 20
9.50924051506283
 30
0.0
 11
-57.60197485528343
 21
10.09109192175791
 31
0.0
  0
LINE
  5
14F
102
{ACAD_REACTORS
330
239
330
23A
102
}
330
71
100
AcDbEntity
  8
0
  6
Continuous
 62
     2
100
AcDbLine
 10
-34.97248841980422
 20
9.79890458318582
 30
0.0
 11
-34.97248841980422
 21
7.53036036549832
 31
0.0
  0
LINE
  5
150
102
{ACAD_REACTORS
330
239
330
23A
102
}
330
71
100
AcDbEntity
  8
0
  6
Continuous
 62
     2
100
AcDbLine
 10
-36.35354219879181
 20
10.58416988930892
 30
0.0
 11
-32.96859668016313
 21
10.58416988930941
 31
0.0
  0
LINE
  5
151
102
{ACAD_REACTORS
330
239
330
23A
102
}
330
71
100
AcDbEntity
  8
0
  6
Continuous
 62
     2
100
AcDbLine
 10
-32.96859668016313
 20
9.79890458318582
 30
0.0
 11
-32.96859668016313
 21
10.58416988930941
 31
0.0
  0
LINE
  5
152
102
{ACAD_REACTORS
330
239
330
23A
102
}
330
71
100
AcDbEntity
  8
0
  6
Continuous
 62
     2
100
AcDbLine
 10
-33.77969571763651
 20
9.79890458318582
 30
0.0
 11
-32.96859668016313
 21
9.79890458318582
 31
0.0
  0
LINE
  5
153
102
{ACAD_REACTORS
330
239
330
23A
102
}
330
71
100
AcDbEntity
  8
0
  6
Continuous
 62
     2
100
AcDbLine
 10
-33.77969571763651
 20
7.53036036549832
 30
0.0
 11
-33.77969571763651
 21
9.79890458318582
 31
0.0
  0
LINE
  5
154
102
{ACAD_REACTORS
330
239
330
23A
102
}
330
71
100
AcDbEntity
  8
0
  6
Continuous
 62
     2
100
AcDbLine
 10
-34.97248841980422
 20
7.53036036549832
 30
0.0
 11
-33.77969571763651
 21
7.53036036549832
 31
0.0
  0
LINE
  5
155
102
{ACAD_REACTORS
330
22F
330
230
102
}
330
71
100
AcDbEntity
  8
0
  6
Continuous
 62
     2
100
AcDbLine
 10
-35.66907935786873
 20
13.94336036548381
 30
0.0
 11
-37.07180357561802
 21
13.94336036548381
 31
0.0
  0
LINE
  5
156
102
{ACAD_REACTORS
330
22F
330
230
102
}
330
71
100
AcDbEntity
  8
0
  6
Continuous
 62
     2
100
AcDbLine
 10
-35.66907935786873
 20
13.94336036548381
 30
0.0
 11
-35.06791183597693
 21
13.26353704392832
 31
0.0
  0
LINE
  5
157
102
{ACAD_REACTORS
330
22F
330
230
102
}
330
71
100
AcDbEntity
  8
0
  6
Continuous
 62
     2
100
AcDbLine
 10
-35.06791183597693
 20
13.26353704392832
 30
0.0
 11
-34.46674431408414
 21
13.94336036548381
 31
0.0
  0
LINE
  5
158
102
{ACAD_REACTORS
330
22F
330
230
102
}
330
71
100
AcDbEntity
  8
0
  6
Continuous
 62
     2
100
AcDbLine
 10
-34.36654972710343
 20
12.47040983544761
 30
0.0
 11
-33.06402009633692
 21
13.94336036548381
 31
0.0
  0
LINE
  5
159
102
{ACAD_REACTORS
330
22F
330
230
102
}
330
71
100
AcDbEntity
  8
0
  6
Continuous
 62
     2
100
AcDbLine
 10
-34.36654972710343
 20
12.47040983544761
 30
0.0
 11
-32.96859668016313
 21
10.88955084167262
 31
0.0
  0
LINE
  5
15A
102
{ACAD_REACTORS
330
22F
330
230
102
}
330
71
100
AcDbEntity
  8
0
  6
Continuous
 62
     2
100
AcDbLine
 10
-34.37132089791143
 20
10.88955084167262
 30
0.0
 11
-32.96859668016313
 21
10.88955084167262
 31
0.0
  0
LINE
  5
15B
102
{ACAD_REACTORS
330
22F
330
230
102
}
330
71
100
AcDbEntity
  8
0
  6
Continuous
 62
     2
100
AcDbLine
 10
-35.06791183597693
 20
11.67728262696633
 30
0.0
 11
-34.37132089791143
 21
10.88955084167262
 31
0.0
  0
LINE
  5
15C
102
{ACAD_REACTORS
330
22D
330
22E
102
}
330
71
100
AcDbEntity
  8
0
  6
Continuous
 62
     2
100
AcDbLine
 10
-38.52701067226062
 20
13.94336036548381
 30
0.0
 11
-37.28650626200772
 21
13.94336036548381
 31
0.0
  0
LINE
  5
15D
102
{ACAD_REACTORS
330
22D
330
22E
102
}
330
71
100
AcDbEntity
  8
0
  6
Continuous
 62
     2
100
AcDbLine
 10
-37.28650626200772
 20
13.94336036548381
 30
0.0
 11
-37.28650626200772
 21
10.88955084167262
 31
0.0
  0
LINE
  5
15E
102
{ACAD_REACTORS
330
22D
330
22E
102
}
330
71
100
AcDbEntity
  8
0
  6
Continuous
 62
     2
100
AcDbLine
 10
-38.52701067226062
 20
10.88955084167262
 30
0.0
 11
-38.52701067226062
 21
13.94336036548381
 31
0.0
  0
LINE
  5
15F
102
{ACAD_REACTORS
330
22B
330
22C
102
}
330
71
100
AcDbEntity
  8
0
  6
Continuous
 62
     2
100
AcDbLine
 10
-39.99532075479823
 20
8.75188417502281
 30
0.0
 11
-39.69515551760583
 21
9.51969914100951
 31
0.0
  0
LINE
  5
160
102
{ACAD_REACTORS
330
22B
330
22C
102
}
330
71
100
AcDbEntity
  8
0
  6
Continuous
 62
     2
100
AcDbLine
 10
-40.47285635941904
 20
7.53036036549832
 30
0.0
 11
-40.26137630594323
 21
8.07132090971621
 31
0.0
  0
LINE
  5
161
102
{ACAD_REACTORS
330
22B
330
22C
102
}
330
71
100
AcDbEntity
  8
0
  6
Continuous
 62
     2
100
AcDbLine
 10
-40.31540772273272
 20
10.58416988930941
 30
0.0
 11
-41.71336076967202
 21
7.53036036549832
 31
0.0
  0
LINE
  5
162
102
{ACAD_REACTORS
330
22B
330
22C
102
}
330
71
100
AcDbEntity
  8
0
  6
Continuous
 62
     2
100
AcDbLine
 10
-37.67695026553972
 20
7.53036036549832
 30
0.0
 11
-38.91745467579364
 21
7.53036036549832
 31
0.0
  0
LINE
  5
163
102
{ACAD_REACTORS
330
22B
330
22C
102
}
330
71
100
AcDbEntity
  8
0
  6
Continuous
 62
     2
100
AcDbLine
 10
-40.26137630594323
 20
8.07132090971621
 30
0.0
 11
-39.12893472926942
 21
8.07132090971621
 31
0.0
  0
LINE
  5
164
102
{ACAD_REACTORS
330
229
330
22A
102
}
330
71
100
AcDbEntity
  8
0
  6
Continuous
 62
     2
100
AcDbLine
 10
-43.87087290885424
 20
9.79890458318582
 30
0.0
 11
-43.05977387137963
 21
9.79890458318582
 31
0.0
  0
LINE
  5
165
102
{ACAD_REACTORS
330
229
330
22A
102
}
330
71
100
AcDbEntity
  8
0
  6
Continuous
 62
     2
100
AcDbLine
 10
-41.05588213174062
 20
10.58416988930941
 30
0.0
 11
-43.87087290885424
 21
10.58416988930941
 31
0.0
  0
LINE
  5
166
102
{ACAD_REACTORS
330
229
330
22A
102
}
330
71
100
AcDbEntity
  8
0
  6
Continuous
 62
     2
100
AcDbLine
 10
-41.05588213174062
 20
9.79890458318582
 30
0.0
 11
-41.05588213174062
 21
10.58416988930941
 31
0.0
  0
LINE
  5
167
102
{ACAD_REACTORS
330
229
330
22A
102
}
330
71
100
AcDbEntity
  8
0
  6
Continuous
 62
     2
100
AcDbLine
 10
-41.86698116921312
 20
9.79890458318582
 30
0.0
 11
-41.05588213174062
 21
9.79890458318582
 31
0.0
  0
LINE
  5
168
102
{ACAD_REACTORS
330
229
330
22A
102
}
330
71
100
AcDbEntity
  8
0
  6
Continuous
 62
     2
100
AcDbLine
 10
-41.86698116921312
 20
7.53036036549832
 30
0.0
 11
-41.86698116921312
 21
9.79890458318582
 31
0.0
  0
LINE
  5
169
102
{ACAD_REACTORS
330
227
330
228
102
}
330
71
100
AcDbEntity
  8
0
  6
Continuous
 62
     2
100
AcDbLine
 10
-41.19886632511512
 20
10.88955084167262
 30
0.0
 11
-41.19886632511512
 21
12.19832635187731
 31
0.0
  0
LINE
  5
16A
102
{ACAD_REACTORS
330
227
330
228
102
}
330
71
100
AcDbEntity
  8
0
  6
Continuous
 62
     2
100
AcDbLine
 10
-42.39165902728163
 20
13.94336036548381
 30
0.0
 11
-42.39165902728163
 21
10.88955084167262
 31
0.0
  0
LINE
  5
16B
102
{ACAD_REACTORS
330
227
330
228
102
}
330
71
100
AcDbEntity
  8
0
  6
Continuous
 62
     2
100
AcDbLine
 10
-41.19886632511512
 20
13.94336036548381
 30
0.0
 11
-42.39165902728163
 21
13.94336036548381
 31
0.0
  0
LINE
  5
16C
102
{ACAD_REACTORS
330
227
330
228
102
}
330
71
100
AcDbEntity
  8
0
  6
Continuous
 62
     2
100
AcDbLine
 10
-39.95836191486112
 20
13.94336036548381
 30
0.0
 11
-39.95836191486112
 21
12.63458485527863
 31
0.0
  0
LINE
  5
16D
102
{ACAD_REACTORS
330
225
330
226
102
}
330
71
100
AcDbEntity
  8
0
  6
Continuous
 62
     2
100
AcDbLine
 10
-47.64009784770133
 20
10.58416988930941
 30
0.0
 11
-47.64009784770133
 21
7.53036036549832
 31
0.0
  0
LINE
  5
16E
102
{ACAD_REACTORS
330
225
330
226
102
}
330
71
100
AcDbEntity
  8
0
  6
Continuous
 62
     2
100
AcDbLine
 10
-46.44730514553373
 20
10.58416988930941
 30
0.0
 11
-47.64009784770133
 21
10.58416988930941
 31
0.0
  0
LINE
  5
16F
102
{ACAD_REACTORS
330
225
330
226
102
}
330
71
100
AcDbEntity
  8
0
  6
Continuous
 62
     2
100
AcDbLine
 10
-45.20680073528084
 20
7.53036036549832
 30
0.0
 11
-44.01400803311444
 21
7.53036036549832
 31
0.0
  0
LINE
  5
170
102
{ACAD_REACTORS
330
225
330
226
102
}
330
71
100
AcDbEntity
  8
0
  6
Continuous
 62
     2
100
AcDbLine
 10
-47.64009784770133
 20
7.53036036549832
 30
0.0
 11
-46.44730514553373
 21
7.53036036549832
 31
0.0
  0
LINE
  5
171
102
{ACAD_REACTORS
330
235
330
236
102
}
330
71
100
AcDbEntity
  8
0
  6
Continuous
 62
     2
100
AcDbLine
 10
-43.96614539414222
 20
12.76546240629912
 30
0.0
 11
-43.96614539414222
 21
13.24534676004083
 31
0.0
  0
LINE
  5
172
102
{ACAD_REACTORS
330
235
330
236
102
}
330
71
100
AcDbEntity
  8
0
  6
Continuous
 62
     2
100
AcDbLine
 10
-42.63021756771454
 20
12.76546240629912
 30
0.0
 11
-43.96614539414222
 21
12.76546240629912
 31
0.0
  0
LINE
  5
173
102
{ACAD_REACTORS
330
235
330
236
102
}
330
71
100
AcDbEntity
  8
0
  6
Continuous
 62
     2
100
AcDbLine
 10
-42.63021756771454
 20
12.06744880085682
 30
0.0
 11
-42.63021756771454
 21
12.76546240629912
 31
0.0
  0
LINE
  5
174
102
{ACAD_REACTORS
330
235
330
236
102
}
330
71
100
AcDbEntity
  8
0
  6
Continuous
 62
     2
100
AcDbLine
 10
-43.96614539414222
 20
12.06744880085682
 30
0.0
 11
-42.63021756771454
 21
12.06744880085682
 31
0.0
  0
LINE
  5
175
102
{ACAD_REACTORS
330
223
330
224
102
}
330
71
100
AcDbEntity
  8
0
  6
Continuous
 62
     2
100
AcDbLine
 10
-47.44910008446914
 20
13.94336036548381
 30
0.0
 11
-47.44910008446914
 21
10.88955084167262
 31
0.0
  0
LINE
  5
176
102
{ACAD_REACTORS
330
223
330
224
102
}
330
71
100
AcDbEntity
  8
0
  6
Continuous
 62
     2
100
AcDbLine
 10
-47.44910008446914
 20
10.88955084167262
 30
0.0
 11
-48.64189278663554
 21
10.88955084167262
 31
0.0
  0
LINE
  5
177
102
{ACAD_REACTORS
330
223
330
224
102
}
330
71
100
AcDbEntity
  8
0
  6
Continuous
 62
     2
100
AcDbLine
 10
-48.64189278663554
 20
10.88955084167262
 30
0.0
 11
-48.64189278663554
 21
12.02382295051643
 31
0.0
  0
LINE
  5
178
102
{ACAD_REACTORS
330
223
330
224
102
}
330
71
100
AcDbEntity
  8
0
  6
Continuous
 62
     2
100
AcDbLine
 10
-49.69155036454302
 20
10.88955084167262
 30
0.0
 11
-50.88434306670962
 21
10.88955084167262
 31
0.0
  0
LINE
  5
179
102
{ACAD_REACTORS
330
223
330
224
102
}
330
71
100
AcDbEntity
  8
0
  6
Continuous
 62
     2
100
AcDbLine
 10
-50.88434306670962
 20
13.94336036548381
 30
0.0
 11
-49.69155036454302
 21
13.94336036548381
 31
0.0
  0
LINE
  5
17A
102
{ACAD_REACTORS
330
223
330
224
102
}
330
71
100
AcDbEntity
  8
0
  6
Continuous
 62
     2
100
AcDbLine
 10
-49.69155036454302
 20
13.94336036548381
 30
0.0
 11
-49.69155036454302
 21
12.87452703214922
 31
0.0
  0
LINE
  5
17B
102
{ACAD_REACTORS
330
223
330
224
102
}
330
71
100
AcDbEntity
  8
0
  6
Continuous
 62
     2
100
AcDbLine
 10
-49.69155036454302
 20
12.87452703214922
 30
0.0
 11
-48.64189278663554
 21
12.87452703214922
 31
0.0
  0
LINE
  5
17C
102
{ACAD_REACTORS
330
231
330
232
102
}
330
71
100
AcDbEntity
  8
0
  6
Continuous
 62
     2
100
AcDbLine
 10
-52.84052309826322
 20
13.28025452004371
 30
0.0
 11
-52.52322803672132
 21
13.28025452004371
 31
0.0
  0
LINE
  5
17D
102
{ACAD_REACTORS
330
231
330
232
102
}
330
71
100
AcDbEntity
  8
0
  6
Continuous
 62
     2
100
AcDbLine
 10
-52.84052309826322
 20
12.5745268707015
 30
0.0
 11
-52.52322803672132
 21
12.5745268707015
 31
0.0
  0
LINE
  5
17E
102
{ACAD_REACTORS
330
231
330
232
102
}
330
71
100
AcDbEntity
  8
0
  6
Continuous
 62
     2
100
AcDbLine
 10
-54.08102750851734
 20
13.94336036548381
 30
0.0
 11
-54.08102750851734
 21
10.88955084167262
 31
0.0
  0
LINE
  5
17F
102
{ACAD_REACTORS
330
231
330
232
102
}
330
71
100
AcDbEntity
  8
0
  6
Continuous
 62
     2
100
AcDbLine
 10
-54.08102750851734
 20
13.94336036548381
 30
0.0
 11
-52.08175551048294
 21
13.94336036548381
 31
0.0
  0
LINE
  5
180
102
{ACAD_REACTORS
330
231
330
232
102
}
330
71
100
AcDbEntity
  8
0
  6
Continuous
 62
     2
100
AcDbLine
 10
-52.84052309826322
 20
11.83262908281643
 30
0.0
 11
-52.08175551048294
 21
11.83262908281643
 31
0.0
  0
LINE
  5
181
102
{ACAD_REACTORS
330
237
330
238
102
}
330
71
100
AcDbEntity
  8
0
  6
Continuous
 62
     2
100
AcDbLine
 10
-60.17752354181403
 20
12.91508788684902
 30
0.0
 11
-60.17752354181403
 21
8.55863284413192
 31
0.0
  0
LINE
  5
182
102
{ACAD_REACTORS
330
237
330
238
102
}
330
71
100
AcDbEntity
  8
0
  6
Continuous
 62
     2
100
AcDbLine
 10
-59.86180661873834
 20
13.23080480992522
 30
0.0
 11
-58.38597335772872
 21
13.23080480992522
 31
0.0
  0
LINE
  5
183
102
{ACAD_REACTORS
330
237
330
238
102
}
330
71
100
AcDbEntity
  8
0
  6
Continuous
 62
     2
100
AcDbLine
 10
-58.07025643465212
 20
12.31106326778851
 30
0.0
 11
-58.07025643465212
 21
12.91508788684902
 31
0.0
  0
LINE
  5
184
102
{ACAD_REACTORS
330
237
330
238
102
}
330
71
100
AcDbEntity
  8
0
  6
Continuous
 62
     2
100
AcDbLine
 10
-58.07025643465212
 20
8.55863284413192
 30
0.0
 11
-58.07025643465212
 21
10.08940377566353
 31
0.0
  0
LINE
  5
185
102
{ACAD_REACTORS
330
237
330
238
102
}
330
71
100
AcDbEntity
  8
0
  6
Continuous
 62
     2
100
AcDbLine
 10
-54.98238920476803
 20
7.53036036549832
 30
0.0
 11
-60.45570129548483
 21
7.53036036549832
 31
0.0
  0
LINE
  5
186
102
{ACAD_REACTORS
330
237
330
238
102
}
330
71
100
AcDbEntity
  8
0
  6
Continuous
 62
     2
100
AcDbLine
 10
-54.55814458938414
 20
13.51911575008182
 30
0.0
 11
-54.55814458938414
 21
7.95460498088161
 31
0.0
  0
LINE
  5
187
102
{ACAD_REACTORS
330
237
330
238
102
}
330
71
100
AcDbEntity
  8
0
  6
Continuous
 62
     2
100
AcDbLine
 10
-60.45570129548483
 20
13.94336036546562
 30
0.0
 11
-54.98238920476803
 21
13.94336036546562
 31
0.0
  0
LINE
  5
188
102
{ACAD_REACTORS
330
237
330
238
102
}
330
71
100
AcDbEntity
  8
0
  6
Continuous
 62
     2
100
AcDbLine
 10
-60.87994591086763
 20
13.51911575008182
 30
0.0
 11
-60.87994591086763
 21
7.95460498088161
 31
0.0
  0
LINE
  5
189
102
{ACAD_REACTORS
330
237
330
238
102
}
330
71
100
AcDbEntity
  8
0
  6
Continuous
 62
     2
100
AcDbLine
 10
-58.38597335772872
 20
8.24291592105521
 30
0.0
 11
-59.86180661873834
 21
8.24291592105521
 31
0.0
  0
LINE
  5
18A
102
{ACAD_REACTORS
330
231
330
232
102
}
330
71
100
AcDbEntity
  8
0
  6
Continuous
 62
     2
100
AcDbLine
 10
-52.84052309826322
 20
10.88955084167262
 30
0.0
 11
-52.84052309826322
 21
11.83262908281643
 31
0.0
  0
LINE
  5
18B
102
{ACAD_REACTORS
330
231
330
232
102
}
330
71
100
AcDbEntity
  8
0
  6
Continuous
 62
     2
100
AcDbLine
 10
-54.08102750851734
 20
10.88955084167262
 30
0.0
 11
-52.84052309826322
 21
10.88955084167262
 31
0.0
  0
LINE
  5
18C
102
{ACAD_REACTORS
330
231
330
232
102
}
330
71
100
AcDbEntity
  8
0
  6
Continuous
 62
     2
100
AcDbLine
 10
-52.84052309826322
 20
12.5745268707015
 30
0.0
 11
-52.84052309826322
 21
13.28025452004371
 31
0.0
  0
LINE
  5
18D
102
{ACAD_REACTORS
330
223
330
224
102
}
330
71
100
AcDbEntity
  8
0
  6
Continuous
 62
     2
100
AcDbLine
 10
-50.88434306670962
 20
13.94336036548381
 30
0.0
 11
-50.88434306670962
 21
10.88955084167262
 31
0.0
  0
LINE
  5
18E
102
{ACAD_REACTORS
330
223
330
224
102
}
330
71
100
AcDbEntity
  8
0
  6
Continuous
 62
     2
100
AcDbLine
 10
-49.69155036454302
 20
12.02382295051643
 30
0.0
 11
-49.69155036454302
 21
10.88955084167262
 31
0.0
  0
LINE
  5
18F
102
{ACAD_REACTORS
330
223
330
224
102
}
330
71
100
AcDbEntity
  8
0
  6
Continuous
 62
     2
100
AcDbLine
 10
-48.64189278663554
 20
12.02382295051643
 30
0.0
 11
-49.69155036454302
 21
12.02382295051643
 31
0.0
  0
LINE
  5
190
102
{ACAD_REACTORS
330
223
330
224
102
}
330
71
100
AcDbEntity
  8
0
  6
Continuous
 62
     2
100
AcDbLine
 10
-48.64189278663554
 20
13.94336036548381
 30
0.0
 11
-47.44910008446914
 21
13.94336036548381
 31
0.0
  0
LINE
  5
191
102
{ACAD_REACTORS
330
223
330
224
102
}
330
71
100
AcDbEntity
  8
0
  6
Continuous
 62
     2
100
AcDbLine
 10
-48.64189278663554
 20
12.87452703214922
 30
0.0
 11
-48.64189278663554
 21
13.94336036548381
 31
0.0
  0
LINE
  5
192
102
{ACAD_REACTORS
330
235
330
236
102
}
330
71
100
AcDbEntity
  8
0
  6
Continuous
 62
     2
100
AcDbLine
 10
-42.63021756771454
 20
13.24534676004083
 30
0.0
 11
-42.63021756771454
 21
13.94336036548381
 31
0.0
  0
LINE
  5
193
102
{ACAD_REACTORS
330
235
330
236
102
}
330
71
100
AcDbEntity
  8
0
  6
Continuous
 62
     2
100
AcDbLine
 10
-45.78053729149553
 20
13.94336036548381
 30
0.0
 11
-42.63021756771454
 21
13.94336036548381
 31
0.0
  0
LINE
  5
194
102
{ACAD_REACTORS
330
235
330
236
102
}
330
71
100
AcDbEntity
  8
0
  6
Continuous
 62
     2
100
AcDbLine
 10
-45.78053729149553
 20
10.88955084167262
 30
0.0
 11
-42.63021756771454
 21
10.88955084167262
 31
0.0
  0
LINE
  5
195
102
{ACAD_REACTORS
330
235
330
236
102
}
330
71
100
AcDbEntity
  8
0
  6
Continuous
 62
     2
100
AcDbLine
 10
-42.63021756771454
 20
10.88955084167262
 30
0.0
 11
-42.63021756771454
 21
11.58756444711511
 31
0.0
  0
LINE
  5
196
102
{ACAD_REACTORS
330
235
330
236
102
}
330
71
100
AcDbEntity
  8
0
  6
Continuous
 62
     2
100
AcDbLine
 10
-42.63021756771454
 20
11.58756444711511
 30
0.0
 11
-43.96614539414222
 21
11.58756444711511
 31
0.0
  0
LINE
  5
197
102
{ACAD_REACTORS
330
235
330
236
102
}
330
71
100
AcDbEntity
  8
0
  6
Continuous
 62
     2
100
AcDbLine
 10
-43.96614539414222
 20
11.58756444711511
 30
0.0
 11
-43.96614539414222
 21
12.06744880085682
 31
0.0
  0
LINE
  5
198
102
{ACAD_REACTORS
330
235
330
236
102
}
330
71
100
AcDbEntity
  8
0
  6
Continuous
 62
     2
100
AcDbLine
 10
-43.96614539414222
 20
13.24534676004083
 30
0.0
 11
-42.63021756771454
 21
13.24534676004083
 31
0.0
  0
LINE
  5
199
102
{ACAD_REACTORS
330
225
330
226
102
}
330
71
100
AcDbEntity
  8
0
  6
Continuous
 62
     2
100
AcDbLine
 10
-46.44730514553373
 20
7.53036036549832
 30
0.0
 11
-46.44730514553373
 21
8.83913587570291
 31
0.0
  0
LINE
  5
19A
102
{ACAD_REACTORS
330
225
330
226
102
}
330
71
100
AcDbEntity
  8
0
  6
Continuous
 62
     2
100
AcDbLine
 10
-46.44730514553373
 20
8.83913587570291
 30
0.0
 11
-45.20680073528084
 21
7.53036036549832
 31
0.0
  0
LINE
  5
19B
102
{ACAD_REACTORS
330
225
330
226
102
}
330
71
100
AcDbEntity
  8
0
  6
Continuous
 62
     2
100
AcDbLine
 10
-44.01400803311444
 20
7.53036036549832
 30
0.0
 11
-44.01400803311444
 21
10.58416988930941
 31
0.0
  0
LINE
  5
19C
102
{ACAD_REACTORS
330
225
330
226
102
}
330
71
100
AcDbEntity
  8
0
  6
Continuous
 62
     2
100
AcDbLine
 10
-44.01400803311444
 20
10.58416988930941
 30
0.0
 11
-45.20680073528084
 21
10.58416988930941
 31
0.0
  0
LINE
  5
19D
102
{ACAD_REACTORS
330
225
330
226
102
}
330
71
100
AcDbEntity
  8
0
  6
Continuous
 62
     2
100
AcDbLine
 10
-45.20680073528084
 20
10.58416988930941
 30
0.0
 11
-45.20680073528084
 21
9.27539437910431
 31
0.0
  0
LINE
  5
19E
102
{ACAD_REACTORS
330
225
330
226
102
}
330
71
100
AcDbEntity
  8
0
  6
Continuous
 62
     2
100
AcDbLine
 10
-45.20680073528084
 20
9.27539437910431
 30
0.0
 11
-46.44730514553373
 21
10.58416988930941
 31
0.0
  0
LINE
  5
19F
102
{ACAD_REACTORS
330
227
330
228
102
}
330
71
100
AcDbEntity
  8
0
  6
Continuous
 62
     2
100
AcDbLine
 10
-41.19886632511512
 20
12.19832635187731
 30
0.0
 11
-39.95836191486112
 21
10.88955084167262
 31
0.0
  0
LINE
  5
1A0
102
{ACAD_REACTORS
330
227
330
228
102
}
330
71
100
AcDbEntity
  8
0
  6
Continuous
 62
     2
100
AcDbLine
 10
-39.95836191486112
 20
10.88955084167262
 30
0.0
 11
-38.76556921269452
 21
10.88955084167262
 31
0.0
  0
LINE
  5
1A1
102
{ACAD_REACTORS
330
227
330
228
102
}
330
71
100
AcDbEntity
  8
0
  6
Continuous
 62
     2
100
AcDbLine
 10
-38.76556921269452
 20
10.88955084167262
 30
0.0
 11
-38.76556921269452
 21
13.94336036548381
 31
0.0
  0
LINE
  5
1A2
102
{ACAD_REACTORS
330
227
330
228
102
}
330
71
100
AcDbEntity
  8
0
  6
Continuous
 62
     2
100
AcDbLine
 10
-38.76556921269452
 20
13.94336036548381
 30
0.0
 11
-39.95836191486112
 21
13.94336036548381
 31
0.0
  0
LINE
  5
1A3
102
{ACAD_REACTORS
330
227
330
228
102
}
330
71
100
AcDbEntity
  8
0
  6
Continuous
 62
     2
100
AcDbLine
 10
-39.95836191486112
 20
12.63458485527863
 30
0.0
 11
-41.19886632511512
 21
13.94336036548381
 31
0.0
  0
LINE
  5
1A4
102
{ACAD_REACTORS
330
227
330
228
102
}
330
71
100
AcDbEntity
  8
0
  6
Continuous
 62
     2
100
AcDbLine
 10
-42.39165902728163
 20
10.88955084167262
 30
0.0
 11
-41.19886632511512
 21
10.88955084167262
 31
0.0
  0
LINE
  5
1A5
102
{ACAD_REACTORS
330
229
330
22A
102
}
330
71
100
AcDbEntity
  8
0
  6
Continuous
 62
     2
100
AcDbLine
 10
-43.87087290885424
 20
10.58416988930941
 30
0.0
 11
-43.87087290885424
 21
9.79890458318582
 31
0.0
  0
LINE
  5
1A6
102
{ACAD_REACTORS
330
229
330
22A
102
}
330
71
100
AcDbEntity
  8
0
  6
Continuous
 62
     2
100
AcDbLine
 10
-43.05977387137963
 20
9.79890458318582
 30
0.0
 11
-43.05977387137963
 21
7.53036036549832
 31
0.0
  0
LINE
  5
1A7
102
{ACAD_REACTORS
330
229
330
22A
102
}
330
71
100
AcDbEntity
  8
0
  6
Continuous
 62
     2
100
AcDbLine
 10
-43.05977387137963
 20
7.53036036549832
 30
0.0
 11
-41.86698116921312
 21
7.53036036549832
 31
0.0
  0
LINE
  5
1A8
102
{ACAD_REACTORS
330
22B
330
22C
102
}
330
71
100
AcDbEntity
  8
0
  6
Continuous
 62
     2
100
AcDbLine
 10
-38.91745467579364
 20
7.53036036549832
 30
0.0
 11
-39.12893472926942
 21
8.07132090971621
 31
0.0
  0
LINE
  5
1A9
102
{ACAD_REACTORS
330
22B
330
22C
102
}
330
71
100
AcDbEntity
  8
0
  6
Continuous
 62
     2
100
AcDbLine
 10
-39.07490331248002
 20
10.58416988930941
 30
0.0
 11
-37.67695026553972
 21
7.53036036549832
 31
0.0
  0
LINE
  5
1AA
102
{ACAD_REACTORS
330
22B
330
22C
102
}
330
71
100
AcDbEntity
  8
0
  6
Continuous
 62
     2
100
AcDbLine
 10
-40.31540772273272
 20
10.58416988930941
 30
0.0
 11
-39.07490331248002
 21
10.58416988930941
 31
0.0
  0
LINE
  5
1AB
102
{ACAD_REACTORS
330
22B
330
22C
102
}
330
71
100
AcDbEntity
  8
0
  6
Continuous
 62
     2
100
AcDbLine
 10
-41.71336076967202
 20
7.53036036549832
 30
0.0
 11
-40.47285635941904
 21
7.53036036549832
 31
0.0
  0
LINE
  5
1AC
102
{ACAD_REACTORS
330
22B
330
22C
102
}
330
71
100
AcDbEntity
  8
0
  6
Continuous
 62
     2
100
AcDbLine
 10
-39.99532075479823
 20
8.75188417502281
 30
0.0
 11
-39.39499028041573
 21
8.75188417502281
 31
0.0
  0
LINE
  5
1AD
102
{ACAD_REACTORS
330
22B
330
22C
102
}
330
71
100
AcDbEntity
  8
0
  6
Continuous
 62
     2
100
AcDbLine
 10
-39.39499028041573
 20
8.75188417502281
 30
0.0
 11
-39.69515551760583
 21
9.51969914100951
 31
0.0
  0
LINE
  5
1AE
102
{ACAD_REACTORS
330
22D
330
22E
102
}
330
71
100
AcDbEntity
  8
0
  6
Continuous
 62
     2
100
AcDbLine
 10
-37.28650626200772
 20
10.88955084167262
 30
0.0
 11
-38.52701067226062
 21
10.88955084167262
 31
0.0
  0
LINE
  5
1AF
102
{ACAD_REACTORS
330
22F
330
230
102
}
330
71
100
AcDbEntity
  8
0
  6
Continuous
 62
     2
100
AcDbLine
 10
-35.76450277404263
 20
10.88955084167262
 30
0.0
 11
-37.16722699179084
 21
10.88955084167262
 31
0.0
  0
LINE
  5
1B0
102
{ACAD_REACTORS
330
22F
330
230
102
}
330
71
100
AcDbEntity
  8
0
  6
Continuous
 62
     2
100
AcDbLine
 10
-35.76450277404263
 20
10.88955084167262
 30
0.0
 11
-35.06791183597693
 21
11.67728262696633
 31
0.0
  0
LINE
  5
1B1
102
{ACAD_REACTORS
330
22F
330
230
102
}
330
71
100
AcDbEntity
  8
0
  6
Continuous
 62
     2
100
AcDbLine
 10
-34.46674431408414
 20
13.94336036548381
 30
0.0
 11
-33.06402009633692
 21
13.94336036548381
 31
0.0
  0
LINE
  5
1B2
102
{ACAD_REACTORS
330
22F
330
230
102
}
330
71
100
AcDbEntity
  8
0
  6
Continuous
 62
     2
100
AcDbLine
 10
-37.07180357561802
 20
13.94336036548381
 30
0.0
 11
-35.76927394485054
 21
12.47040983544761
 31
0.0
  0
LINE
  5
1B3
102
{ACAD_REACTORS
330
22F
330
230
102
}
330
71
100
AcDbEntity
  8
0
  6
Continuous
 62
     2
100
AcDbLine
 10
-37.16722699179084
 20
10.88955084167262
 30
0.0
 11
-35.76927394485054
 21
12.47040983544761
 31
0.0
  0
LINE
  5
1B4
102
{ACAD_REACTORS
330
239
330
23A
102
}
330
71
100
AcDbEntity
  8
0
  6
Continuous
 62
     2
100
AcDbLine
 10
-35.30647037641091
 20
8.57738077366193
 30
0.0
 11
-35.30647037641091
 21
7.70486376685861
 31
0.0
  0
LINE
  5
1B5
102
{ACAD_REACTORS
330
239
330
23A
102
}
330
71
100
AcDbEntity
  8
0
  6
Continuous
 62
     2
100
AcDbLine
 10
-36.07612771937232
 20
9.79890458318582
 30
0.0
 11
-34.97248841980422
 21
9.79890458318582
 31
0.0
  0
LINE
  5
1B6
102
{ACAD_REACTORS
330
23B
330
23C
102
}
330
71
100
AcDbEntity
  8
0
  6
Continuous
 62
     2
100
AcDbLine
 10
-51.40917185566283
 20
8.57738077366241
 30
0.0
 11
-51.40917185566283
 21
7.70486376685921
 31
0.0
  0
LINE
  5
1B7
102
{ACAD_REACTORS
330
23B
330
23C
102
}
330
71
100
AcDbEntity
  8
0
  6
Continuous
 62
     2
100
AcDbLine
 10
-51.40917185566283
 20
9.53714948114532
 30
0.0
 11
-51.40917185566283
 21
10.40966648794861
 31
0.0
  0
LINE
  5
1B8
330
71
100
AcDbEntity
  8
1
  6
Continuous
 62
     7
100
AcDbLine
 10
64.42820372932107
 20
8.73686036548202
 30
0.0
 11
-28.71660079743032
 21
8.73686036548202
 31
0.0
  0
LINE
  5
1B9
330
71
100
AcDbEntity
  8
1
  6
Continuous
 62
     6
100
AcDbLine
 10
-134.1166007974302
 20
0.23686036548202
 30
0.0
 11
-179.0717962706802
 21
0.23686036548202
 31
0.0
  0
LINE
  5
1BA
330
71
100
AcDbEntity
  8
1
  6
Continuous
 62
     7
100
AcDbLine
 10
55.50979544764226
 20
25.73686036548202
 30
0.0
 11
55.50979544764226
 21
17.23686036548202
 31
0.0
  0
LINE
  5
1BB
330
71
100
AcDbEntity
  8
1
  6
Continuous
 62
     7
100
AcDbLine
 10
29.00979544764266
 20
25.73686036548202
 30
0.0
 11
29.00979544764266
 21
17.23686036548202
 31
0.0
  0
LINE
  5
1BC
330
71
100
AcDbEntity
  8
1
  6
Continuous
 62
     7
100
AcDbLine
 10
-28.71660079743032
 20
17.23686036548202
 30
0.0
 11
-28.71660079743032
 21
25.73686036548202
 31
0.0
  0
LINE
  5
1BD
330
71
100
AcDbEntity
  8
1
  6
Continuous
 62
     7
100
AcDbLine
 10
-65.11660079743024
 20
17.23686036548202
 30
0.0
 11
-65.11660079743024
 21
25.73686036548202
 31
0.0
  0
LINE
  5
1BE
330
71
100
AcDbEntity
  8
1
  6
Continuous
 62
     6
100
AcDbLine
 10
-28.71660079743032
 20
17.23686036548202
 30
0.0
 11
64.42820372932147
 21
17.23686036548202
 31
0.0
  0
LINE
  5
1BF
330
71
100
AcDbEntity
  8
1
  6
Continuous
 62
     7
100
AcDbLine
 10
-0.81660079743023
 20
8.73686036548193
 30
0.0
 11
-0.81660079743023
 21
17.23686036548202
 31
0.0
  0
LINE
  5
1C0
330
71
100
AcDbEntity
  8
1
  6
PHANTOM
 62
     2
100
AcDbLine
 10
-49.62994591086763
 20
21.36186036548193
 30
0.0
 11
-55.12994591086763
 21
21.36186036548193
 31
0.0
  0
LINE
  5
1C1
330
71
100
AcDbEntity
  8
1
  6
PHANTOM
 62
     2
100
AcDbLine
 10
-52.37994591086763
 20
24.11186036548193
 30
0.0
 11
-52.37994591086763
 21
18.61186036548193
 31
0.0
  0
LINE
  5
1C2
330
71
100
AcDbEntity
  8
1
  6
DOT_CENTER
 62
     2
100
AcDbLine
 10
-61.12994591086763
 20
21.36186036548193
 30
0.0
 11
-55.62994591086763
 21
21.36186036548193
 31
0.0
  0
ARC
  5
1C3
102
{ACAD_REACTORS
330
23B
330
23C
102
}
330
71
100
AcDbEntity
  8
0
  6
Continuous
 62
     2
100
AcDbCircle
 10
-52.74509977278063
 20
5.74458418214772
 30
0.0
 40
4.852596863498064
100
AcDbArc
 50
74.02000874164737
 51
84.84185523037515
  0
ARC
  5
1C4
102
{ACAD_REACTORS
330
23B
330
23C
102
}
330
71
100
AcDbEntity
  8
0
  6
Continuous
 62
     2
100
AcDbCircle
 10
-52.16905916402692
 20
8.90034453803202
 30
0.0
 40
0.9059297849853228
100
AcDbArc
 50
71.55192388185348
 51
113.3722778881294
  0
ARC
  5
1C5
102
{ACAD_REACTORS
330
23B
330
23C
102
}
330
71
100
AcDbEntity
  8
0
  6
Continuous
 62
     2
100
AcDbCircle
 10
-52.32549919672894
 20
8.85219369806512
 30
0.0
 40
0.5115800601948034
100
AcDbArc
 50
208.5214732576956
 51
246.6277221118266
  0
ARC
  5
1C6
102
{ACAD_REACTORS
330
23B
330
23C
102
}
330
71
100
AcDbEntity
  8
0
  6
Continuous
 62
     2
100
AcDbCircle
 10
-52.16905916402692
 20
9.21418571677512
 30
0.0
 40
0.905929784984922
100
AcDbArc
 50
246.6277221118706
 51
288.4480761181584
  0
ARC
  5
1C7
102
{ACAD_REACTORS
330
23B
330
23C
102
}
330
71
100
AcDbEntity
  8
0
  6
Continuous
 62
     2
100
AcDbCircle
 10
-52.58722689768771
 20
10.46773149281231
 30
0.0
 40
2.22738400897274
100
AcDbArc
 50
288.4480761181326
 51
301.9309089499592
  0
ARC
  5
1C8
102
{ACAD_REACTORS
330
237
330
238
102
}
330
71
100
AcDbEntity
  8
0
  6
Continuous
 62
     2
100
AcDbCircle
 10
-57.81230063029452
 20
11.20023352172632
 30
0.0
 40
0.9118481501444634
100
AcDbArc
 50
295.3740086781773
 51
64.62599132180651
  0
ARC
  5
1C9
102
{ACAD_REACTORS
330
237
330
238
102
}
330
71
100
AcDbEntity
  8
0
  6
Continuous
 62
     2
100
AcDbCircle
 10
-57.28625793220664
 20
12.91491041020092
 30
0.0
 40
0.3157169230760746
100
AcDbArc
 50
90.18896704254722
 51
180.0
  0
ARC
  5
1CA
102
{ACAD_REACTORS
330
239
330
23A
102
}
330
71
100
AcDbEntity
  8
0
  6
Continuous
 62
     2
100
AcDbCircle
 10
-36.07612771937232
 20
8.84438157635972
 30
0.0
 40
0.9545230068260935
100
AcDbArc
 50
90.0
 51
109.337143219432
  0
ARC
  5
1CB
102
{ACAD_REACTORS
330
239
330
23A
102
}
330
71
100
AcDbEntity
  8
0
  6
Continuous
 62
     2
100
AcDbCircle
 10
-35.84544045939464
 20
9.05726512740361
 30
0.0
 40
0.9410597353348862
100
AcDbArc
 50
151.4785267423622
 51
208.5214732576697
  0
ARC
  5
1CC
102
{ACAD_REACTORS
330
239
330
23A
102
}
330
71
100
AcDbEntity
  8
0
  6
Continuous
 62
     2
100
AcDbCircle
 10
-36.06635768477293
 20
9.21418571677512
 30
0.0
 40
0.9059297849852772
100
AcDbArc
 50
246.6277221118187
 51
288.4480761180817
  0
ARC
  5
1CD
102
{ACAD_REACTORS
330
239
330
23A
102
}
330
71
100
AcDbEntity
  8
0
  6
Continuous
 62
     2
100
AcDbCircle
 10
-36.48452541843483
 20
10.46773149281171
 30
0.0
 40
2.227384008972745
100
AcDbArc
 50
288.4480761181333
 51
301.9309089499399
  0
ARC
  5
1CE
102
{ACAD_REACTORS
330
239
330
23A
102
}
330
71
100
AcDbEntity
  8
0
  6
Continuous
 62
     2
100
AcDbCircle
 10
-36.64239829352763
 20
12.36994607266001
 30
0.0
 40
4.85259686349882
100
AcDbArc
 50
275.1581447696362
 51
285.9799912583387
  0
ARC
  5
1CF
102
{ACAD_REACTORS
330
239
330
23A
102
}
330
71
100
AcDbEntity
  8
0
  6
Continuous
 62
     2
100
AcDbCircle
 10
-36.35354219879181
 20
9.17005548943843
 30
0.0
 40
1.639695123940455
100
AcDbArc
 50
195.0618917771012
 51
275.158144769676
  0
ARC
  5
1D0
102
{ACAD_REACTORS
330
231
330
232
102
}
330
71
100
AcDbEntity
  8
0
  6
Continuous
 62
     2
100
AcDbCircle
 10
-52.08175551048294
 20
12.88799472415013
 30
0.0
 40
1.055365641333699
100
AcDbArc
 50
270.0
 51
90.0
  0
ARC
  5
1D1
102
{ACAD_REACTORS
330
237
330
238
102
}
330
71
100
AcDbEntity
  8
0
  6
Continuous
 62
     2
100
AcDbCircle
 10
-59.86180661873834
 20
8.55863284413192
 30
0.0
 40
0.3157169230756907
100
AcDbArc
 50
180.0
 51
270.0
  0
ARC
  5
1D2
102
{ACAD_REACTORS
330
237
330
238
102
}
330
71
100
AcDbEntity
  8
0
  6
Continuous
 62
     2
100
AcDbCircle
 10
-58.38597335772872
 20
12.91508788684902
 30
0.0
 40
0.3157169230766002
100
AcDbArc
 50
0.0
 51
90.0
  0
ARC
  5
1D3
102
{ACAD_REACTORS
330
237
330
238
102
}
330
71
100
AcDbEntity
  8
0
  6
Continuous
 62
     2
100
AcDbCircle
 10
-58.38597335772872
 20
12.31106326778851
 30
0.0
 40
0.3157169230761233
100
AcDbArc
 50
295.1944106485409
 51
0.0
  0
ARC
  5
1D4
102
{ACAD_REACTORS
330
237
330
238
102
}
330
71
100
AcDbEntity
  8
0
  6
Continuous
 62
     2
100
AcDbCircle
 10
-58.38597335772872
 20
8.55863284413192
 30
0.0
 40
0.3157169230767067
100
AcDbArc
 50
270.0
 51
0.0
  0
ARC
  5
1D5
102
{ACAD_REACTORS
330
237
330
238
102
}
330
71
100
AcDbEntity
  8
0
  6
Continuous
 62
     2
100
AcDbCircle
 10
-60.45570129548483
 20
13.51911575008182
 30
0.0
 40
0.4242446153838006
100
AcDbArc
 50
90.0
 51
180.0
  0
ARC
  5
1D6
102
{ACAD_REACTORS
330
237
330
238
102
}
330
71
100
AcDbEntity
  8
0
  6
Continuous
 62
     2
100
AcDbCircle
 10
-54.98238920476803
 20
13.51911575008182
 30
0.0
 40
0.4242446153838912
100
AcDbArc
 50
0.0
 51
90.0
  0
ARC
  5
1D7
102
{ACAD_REACTORS
330
237
330
238
102
}
330
71
100
AcDbEntity
  8
0
  6
Continuous
 62
     2
100
AcDbCircle
 10
-54.98238920476803
 20
7.95460498088161
 30
0.0
 40
0.4242446153832873
100
AcDbArc
 50
270.0
 51
0.0
  0
ARC
  5
1D8
102
{ACAD_REACTORS
330
235
330
236
102
}
330
71
100
AcDbEntity
  8
0
  6
Continuous
 62
     2
100
AcDbCircle
 10
-45.76400531767652
 20
12.41645560357793
 30
0.0
 40
0.7717997786796351
100
AcDbArc
 50
321.879580202844
 51
38.12041979715956
  0
ARC
  5
1D9
102
{ACAD_REACTORS
330
235
330
236
102
}
330
71
100
AcDbEntity
  8
0
  6
Continuous
 62
     2
100
AcDbCircle
 10
-45.56426528133034
 20
12.25972442545751
 30
0.0
 40
0.5179085730134315
100
AcDbArc
 50
218.1204197971516
 51
321.8795802028571
  0
ARC
  5
1DA
102
{ACAD_REACTORS
330
233
330
234
102
}
330
71
100
AcDbEntity
  8
0
  6
Continuous
 62
     2
100
AcDbCircle
 10
-49.24427287029053
 20
9.05726512740361
 30
0.0
 40
1.458034083652003
100
AcDbArc
 50
297.548148175701
 51
62.45185182429896
  0
ARC
  5
1DB
102
{ACAD_REACTORS
330
233
330
234
102
}
330
71
100
AcDbEntity
  8
0
  6
Continuous
 62
     2
100
AcDbCircle
 10
-49.80615265395713
 20
9.05726512740361
 30
0.0
 40
1.458034083651493
100
AcDbArc
 50
117.5481481756627
 51
242.4518518243373
  0
ARC
  5
1DC
102
{ACAD_REACTORS
330
233
330
234
102
}
330
71
100
AcDbEntity
  8
0
  6
Continuous
 62
     2
100
AcDbCircle
 10
-49.52521276212383
 20
8.51869011710082
 30
0.0
 40
2.065479772208568
100
AcDbArc
 50
62.45185182430637
 51
117.5481481756666
  0
ARC
  5
1DD
102
{ACAD_REACTORS
330
233
330
234
102
}
330
71
100
AcDbEntity
  8
0
  6
Continuous
 62
     2
100
AcDbCircle
 10
-49.52521276212383
 20
9.59584013770692
 30
0.0
 40
2.065479772208512
100
AcDbArc
 50
242.45185182434
 51
297.5481481756871
  0
ARC
  5
1DE
102
{ACAD_REACTORS
330
235
330
236
102
}
330
71
100
AcDbEntity
  8
0
  6
Continuous
 62
     2
100
AcDbCircle
 10
-45.36452524498404
 20
12.41645560357793
 30
0.0
 40
0.7717997786796724
100
AcDbArc
 50
141.8795802028404
 51
218.120419797156
  0
ARC
  5
1DF
102
{ACAD_REACTORS
330
235
330
236
102
}
330
71
100
AcDbEntity
  8
0
  6
Continuous
 62
     2
100
AcDbCircle
 10
-45.56426528133034
 20
12.57318678169841
 30
0.0
 40
0.5179085730135321
100
AcDbArc
 50
38.12041979714286
 51
141.8795802028484
  0
ARC
  5
1E0
102
{ACAD_REACTORS
330
237
330
238
102
}
330
71
100
AcDbEntity
  8
0
  6
Continuous
 62
     2
100
AcDbCircle
 10
-60.45570129548483
 20
7.95460498088161
 30
0.0
 40
0.4242446153828041
100
AcDbArc
 50
180.0
 51
270.0
  0
ARC
  5
1E1
102
{ACAD_REACTORS
330
237
330
238
102
}
330
71
100
AcDbEntity
  8
0
  6
Continuous
 62
     2
100
AcDbCircle
 10
-58.38597335772872
 20
10.08940377566353
 30
0.0
 40
0.3157169230766002
100
AcDbArc
 50
0.0
 51
64.8055893514591
  0
ARC
  5
1E2
102
{ACAD_REACTORS
330
237
330
238
102
}
330
71
100
AcDbEntity
  8
0
  6
Continuous
 62
     2
100
AcDbCircle
 10
-57.86338891015373
 20
11.20023352172632
 30
0.0
 40
0.9118975235576114
100
AcDbArc
 50
115.1944106485283
 51
244.8055893514877
  0
ARC
  5
1E3
102
{ACAD_REACTORS
330
237
330
238
102
}
330
71
100
AcDbEntity
  8
0
  6
Continuous
 62
     2
100
AcDbCircle
 10
-59.86180661873834
 20
12.91508788684902
 30
0.0
 40
0.3157169230761987
100
AcDbArc
 50
90.0
 51
180.0
  0
ARC
  5
1E4
102
{ACAD_REACTORS
330
231
330
232
102
}
330
71
100
AcDbEntity
  8
0
  6
Continuous
 62
     2
100
AcDbCircle
 10
-52.52322803672132
 20
12.92739069537262
 30
0.0
 40
0.35286382467112
100
AcDbArc
 50
270.0
 51
90.0
  0
ARC
  5
1E5
102
{ACAD_REACTORS
330
235
330
236
102
}
330
71
100
AcDbEntity
  8
0
  6
Continuous
 62
     2
100
AcDbCircle
 10
-45.78053729149553
 20
12.41645560357793
 30
0.0
 40
1.526904761905881
100
AcDbArc
 50
90.0
 51
270.0
  0
ARC
  5
1E6
102
{ACAD_REACTORS
330
239
330
23A
102
}
330
71
100
AcDbEntity
  8
0
  6
Continuous
 62
     2
100
AcDbCircle
 10
-36.35354219879181
 20
8.94447476536871
 30
0.0
 40
1.639695123940211
100
AcDbArc
 50
90.0
 51
164.938108222895
  0
ARC
  5
1E7
102
{ACAD_REACTORS
330
239
330
23A
102
}
330
71
100
AcDbEntity
  8
0
  6
Continuous
 62
     2
100
AcDbCircle
 10
-36.77267004225342
 20
9.05726512740361
 30
0.0
 40
1.205656168393009
100
AcDbArc
 50
164.9381082229029
 51
195.0618917770958
  0
ARC
  5
1E8
102
{ACAD_REACTORS
330
239
330
23A
102
}
330
71
100
AcDbEntity
  8
0
  6
Continuous
 62
     2
100
AcDbCircle
 10
-36.22279771747603
 20
8.85219369806512
 30
0.0
 40
0.5115800601960153
100
AcDbArc
 50
208.521473257687
 51
246.6277221118449
  0
ARC
  5
1E9
102
{ACAD_REACTORS
330
239
330
23A
102
}
330
71
100
AcDbEntity
  8
0
  6
Continuous
 62
     2
100
AcDbCircle
 10
-36.22279771747603
 20
9.26233655674261
 30
0.0
 40
0.5115800601944143
100
AcDbArc
 50
109.3371432194853
 51
151.4785267424221
  0
ARC
  5
1EA
102
{ACAD_REACTORS
330
237
330
238
102
}
330
71
100
AcDbEntity
  8
0
  6
Continuous
 62
     2
100
AcDbCircle
 10
-57.28625793220664
 20
9.50924051506283
 30
0.0
 40
0.315716923076792
100
AcDbArc
 50
180.0
 51
269.8110329574529
  0
ARC
  5
1EB
102
{ACAD_REACTORS
330
237
330
238
102
}
330
71
100
AcDbEntity
  8
0
  6
Continuous
 62
     2
100
AcDbCircle
 10
-57.28064179689662
 20
11.21207546263182
 30
0.0
 40
2.018561131933269
100
AcDbArc
 50
269.8110329575857
 51
90.18896704241436
  0
ARC
  5
1EC
102
{ACAD_REACTORS
330
237
330
238
102
}
330
71
100
AcDbEntity
  8
0
  6
Continuous
 62
     2
100
AcDbCircle
 10
-57.28625793220664
 20
12.30937512169413
 30
0.0
 40
0.315716923076792
100
AcDbArc
 50
180.0
 51
244.6259913216495
  0
ARC
  5
1ED
102
{ACAD_REACTORS
330
237
330
238
102
}
330
71
100
AcDbEntity
  8
0
  6
Continuous
 62
     2
100
AcDbCircle
 10
-57.28625793220664
 20
10.09109192175791
 30
0.0
 40
0.3157169230765314
100
AcDbArc
 50
115.3740086783506
 51
180.0
  0
ARC
  5
1EE
102
{ACAD_REACTORS
330
23B
330
23C
102
}
330
71
100
AcDbEntity
  8
0
  6
Continuous
 62
     2
100
AcDbCircle
 10
-52.45624367804473
 20
8.94447476536871
 30
0.0
 40
1.639695123940505
100
AcDbArc
 50
84.84185523036236
 51
164.9381082228864
  0
ARC
  5
1EF
102
{ACAD_REACTORS
330
23B
330
23C
102
}
330
71
100
AcDbEntity
  8
0
  6
Continuous
 62
     2
100
AcDbCircle
 10
-52.87537152150753
 20
9.05726512740361
 30
0.0
 40
1.205656168390937
100
AcDbArc
 50
164.9381082228764
 51
195.0618917770949
  0
ARC
  5
1F0
102
{ACAD_REACTORS
330
23B
330
23C
102
}
330
71
100
AcDbEntity
  8
0
  6
Continuous
 62
     2
100
AcDbCircle
 10
-52.45624367804473
 20
9.17005548943843
 30
0.0
 40
1.63969512393938
100
AcDbArc
 50
195.0618917770896
 51
275.1581447696395
  0
ARC
  5
1F1
102
{ACAD_REACTORS
330
23B
330
23C
102
}
330
71
100
AcDbEntity
  8
0
  6
Continuous
 62
     2
100
AcDbCircle
 10
-52.74509977278063
 20
12.36994607266001
 30
0.0
 40
4.852596863498134
100
AcDbArc
 50
275.1581447696249
 51
285.9799912583529
  0
ARC
  5
1F2
102
{ACAD_REACTORS
330
23B
330
23C
102
}
330
71
100
AcDbEntity
  8
0
  6
Continuous
 62
     2
100
AcDbCircle
 10
-51.94814193864863
 20
9.05726512740361
 30
0.0
 40
0.9410597353332545
100
AcDbArc
 50
151.4785267422669
 51
208.5214732577057
  0
ARC
  5
1F3
102
{ACAD_REACTORS
330
23B
330
23C
102
}
330
71
100
AcDbEntity
  8
0
  6
Continuous
 62
     2
100
AcDbCircle
 10
-52.32549919672894
 20
9.26233655674261
 30
0.0
 40
0.5115800601948807
100
AcDbArc
 50
113.3722778881999
 51
151.4785267423044
  0
ARC
  5
1F4
102
{ACAD_REACTORS
330
23B
330
23C
102
}
330
71
100
AcDbEntity
  8
0
  6
Continuous
 62
     2
100
AcDbCircle
 10
-52.58722689768771
 20
7.64679876199543
 30
0.0
 40
2.227384008973478
100
AcDbArc
 50
58.06909105004071
 51
71.5519238818674
  0
ARC
  5
1F5
102
{ACAD_REACTORS
330
233
330
234
102
}
330
71
100
AcDbEntity
  8
0
  6
Continuous
 62
     2
100
AcDbCircle
 10
-49.52521276212383
 20
9.21399630552412
 30
0.0
 40
0.5179085730132998
100
AcDbArc
 50
38.12041979714704
 51
141.8795802028588
  0
ARC
  5
1F6
102
{ACAD_REACTORS
330
233
330
234
102
}
330
71
100
AcDbEntity
  8
0
  6
Continuous
 62
     2
100
AcDbCircle
 10
-49.32547272577773
 20
9.05726512740361
 30
0.0
 40
0.7717997786794633
100
AcDbArc
 50
141.8795802028363
 51
218.1204197971687
  0
ARC
  5
1F7
102
{ACAD_REACTORS
330
233
330
234
102
}
330
71
100
AcDbEntity
  8
0
  6
Continuous
 62
     2
100
AcDbCircle
 10
-49.52521276212383
 20
8.90053394928361
 30
0.0
 40
0.5179085730137354
100
AcDbArc
 50
218.1204197971931
 51
321.879580202801
  0
ARC
  5
1F8
102
{ACAD_REACTORS
330
233
330
234
102
}
330
71
100
AcDbEntity
  8
0
  6
Continuous
 62
     2
100
AcDbCircle
 10
-49.72495279847024
 20
9.05726512740361
 30
0.0
 40
0.7717997786796947
100
AcDbArc
 50
321.8795802028417
 51
38.12041979715329
  0
CIRCLE
  5
1F9
330
71
100
AcDbEntity
  8
1
  6
Continuous
 62
     2
100
AcDbCircle
 10
-52.37994591086763
 20
21.36186036548193
 30
0.0
 40
2.5
  0
CIRCLE
  5
1FA
330
71
100
AcDbEntity
  8
1
  6
Continuous
 62
     2
100
AcDbCircle
 10
-52.37994591086763
 20
21.36186036548193
 30
0.0
 40
1.249999999999915
  0
CIRCLE
  5
1FB
102
{ACAD_REACTORS
330
237
330
238
102
}
330
71
100
AcDbEntity
  8
0
  6
Continuous
 62
     2
100
AcDbCircle
 10
-57.83611564496732
 20
11.20023352172632
 30
0.0
 40
0.4709789327785145
  0
MTEXT
  5
1FC
330
71
100
AcDbEntity
  8
1
 62
     3
100
AcDbMText
 10
-222.5667284846084
 20
187.0281685207808
 30
0.0
 40
1.8
 41
0.0
 71
     7
 72
     1
  3
Weitergabe sowie Vervielf\U+00e4ltigung dieses Dokuments, Verwertung und \PMitteilung seines Inhalts sind verboten, soweit nicht ausdr\U+00fccklich gestattet. \PZuwiderhandlungen verpflichten zu Schadenersatz. Alle Rechte f\U+00fcr den Fall\Pder Pat
  1
ent-, Gebrauchsmuster- oder Designeintragung vorbehalten.
  7
CONVERTER_11
 73
     1
 44
0.99639855942377
  0
MTEXT
  5
1FD
330
71
100
AcDbEntity
  8
1
 62
     3
100
AcDbMText
 10
-39.71361864582033
 20
187.0281685207808
 30
0.0
 40
1.8
 41
0.0
 71
     7
 72
     1
  3
Transfer or duplication of this document as well as the utilisation or\Pcommunication of its content are not permitted unless express consent\Pis granted. Violations give rise to claims for damages. All rights reserved\Pin case of patent, utility mo
  1
del or design patent registrations.
  7
CONVERTER_11
 73
     1
 44
0.99639855942377
  0
TEXT
  5
1FE
330
71
100
AcDbEntity
  8
1
 62
     2
100
AcDbText
 10
-45.91660079743042
 20
1.4778431504904
 30
0.0
 40
1.8
  1
of
 41
0.9
  7
CONVERTER_11
100
AcDbText
  0
TEXT
  5
1FF
330
71
100
AcDbEntity
  8
1
 62
     2
100
AcDbText
 10
-64.11660079743024
 20
1.47784315049034
 30
0.0
 40
1.8
  1
page
 41
0.9
  7
CONVERTER_11
100
AcDbText
  0
TEXT
  5
200
330
71
100
AcDbEntity
  8
1
 62
     2
100
AcDbText
 10
-55.47033582708824
 20
1.43761171168001
 30
0.0
 40
1.8
  1
1
 41
0.9
  7
CONVERTER_11
100
AcDbText
  0
TEXT
  5
201
330
71
100
AcDbEntity
  8
1
 62
     2
100
AcDbText
 10
-40.68129198761673
 20
1.4868603654819
 30
0.0
 40
1.8
  1
1
 41
0.9
  7
CONVERTER_11
100
AcDbText
  0
MTEXT
  5
203
330
71
100
AcDbEntity
  8
1
 62
     7
100
AcDbMText
 10
17.85580146594526
 20
3.48686036548224
 30
0.0
 40
3.0
 41
0.0
 71
     5
 72
     1
  1
D-MSBV 2,5
  7
CONVERTER_12
 73
     1
 44
1.20048019207683
  0
MTEXT
  5
204
330
71
100
AcDbEntity
  8
1
 62
     2
100
AcDbMText
 10
-27.71660079743032
 20
7.73686036548202
 30
0.0
 40
1.8
 41
0.0
 71
     1
 72
     1
  1
description
  7
CONVERTER_11
 73
     1
 44
1.20048019207683
  0
MTEXT
  5
205
330
71
100
AcDbEntity
  8
1
 62
     3
100
AcDbMText
 10
-38.91660079743033
 20
21.36186036548202
 30
0.0
 40
2.5
 41
0.0
 71
     5
 72
     1
  1
DIN A4
  7
CONVERTER_11
 73
     1
 44
1.20048019207683
  0
MTEXT
  5
206
330
71
100
AcDbEntity
  8
1
 62
     7
100
AcDbMText
 10
-225.0717962706793
 20
22.73686036548202
 30
0.0
 40
3.5
 41
0.0
 71
     5
 72
     1
  1
D
  7
CONVERTER_11
 73
     1
 44
1.20048019207683
  0
MTEXT
  5
207
330
71
100
AcDbEntity
  8
1
 62
     7
100
AcDbMText
 10
-225.0717962706793
 20
75.23686036548202
 30
0.0
 40
3.5
 41
0.0
 71
     5
 72
     1
  1
C
  7
CONVERTER_11
 73
     1
 44
1.20048019207683
  0
MTEXT
  5
208
330
71
100
AcDbEntity
  8
1
 62
     7
100
AcDbMText
 10
-225.0717962706793
 20
125.236860365482
 30
0.0
 40
3.5
 41
0.0
 71
     5
 72
     1
  1
B
  7
CONVERTER_11
 73
     1
 44
1.20048019207683
  0
MTEXT
  5
209
330
71
100
AcDbEntity
  8
1
 62
     7
100
AcDbMText
 10
-225.0717962706793
 20
177.736860365482
 30
0.0
 40
3.5
 41
0.0
 71
     5
 72
     1
  1
A
  7
CONVERTER_11
 73
     1
 44
1.20048019207683
  0
MTEXT
  5
20A
330
71
100
AcDbEntity
  8
1
 62
     7
100
AcDbMText
 10
45.17820372931897
 20
-2.2631396345181
 30
0.0
 40
3.5
 41
0.0
 71
     5
 72
     1
  1
6
  7
CONVERTER_11
 73
     1
 44
1.20048019207683
  0
MTEXT
  5
20B
330
71
100
AcDbEntity
  8
1
 62
     7
100
AcDbMText
 10
-4.07179627068024
 20
-2.2631396345181
 30
0.0
 40
3.5
 41
0.0
 71
     5
 72
     1
  1
5
  7
CONVERTER_11
 73
     1
 44
1.20048019207683
  0
MTEXT
  5
20C
330
71
100
AcDbEntity
  8
1
 62
     7
100
AcDbMText
 10
-54.07179627068032
 20
-2.2631396345181
 30
0.0
 40
3.5
 41
0.0
 71
     5
 72
     1
  1
4
  7
CONVERTER_11
 73
     1
 44
1.20048019207683
  0
MTEXT
  5
20D
330
71
100
AcDbEntity
  8
1
 62
     7
100
AcDbMText
 10
-104.0717962706802
 20
-2.2631396345181
 30
0.0
 40
3.5
 41
0.0
 71
     5
 72
     1
  1
3
  7
CONVERTER_11
 73
     1
 44
1.20048019207683
  0
MTEXT
  5
20E
330
71
100
AcDbEntity
  8
1
 62
     7
100
AcDbMText
 10
-154.0717962706802
 20
-2.2631396345181
 30
0.0
 40
3.5
 41
0.0
 71
     5
 72
     1
  1
2
  7
CONVERTER_11
 73
     1
 44
1.20048019207683
  0
MTEXT
  5
20F
330
71
100
AcDbEntity
  8
1
 62
     7
100
AcDbMText
 10
-203.3217962706798
 20
-2.2631396345181
 30
0.0
 40
3.5
 41
0.0
 71
     5
 72
     1
  1
1
  7
CONVERTER_11
 73
     1
 44
1.20048019207683
  0
MTEXT
  5
210
330
71
100
AcDbEntity
  8
1
 62
     7
100
AcDbMText
 10
66.92820372931877
 20
22.73686036548202
 30
0.0
 40
3.5
 41
0.0
 71
     5
 72
     1
  1
D
  7
CONVERTER_11
 73
     1
 44
1.20048019207683
  0
MTEXT
  5
211
330
71
100
AcDbEntity
  8
1
 62
     7
100
AcDbMText
 10
66.92820372931877
 20
125.2368603654839
 30
0.0
 40
3.5
 41
0.0
 71
     5
 72
     1
  1
B
  7
CONVERTER_11
 73
     1
 44
1.20048019207683
  0
MTEXT
  5
212
330
71
100
AcDbEntity
  8
1
 62
     7
100
AcDbMText
 10
66.92820372931877
 20
177.736860365482
 30
0.0
 40
3.5
 41
0.0
 71
     5
 72
     1
  1
A
  7
CONVERTER_11
 73
     1
 44
1.20048019207683
  0
MTEXT
  5
213
330
71
100
AcDbEntity
  8
1
 62
     7
100
AcDbMText
 10
66.92820372931877
 20
75.23686036548392
 30
0.0
 40
3.5
 41
0.0
 71
     5
 72
     1
  1
C
  7
CONVERTER_11
 73
     1
 44
1.20048019207683
  0
MTEXT
  5
214
330
71
100
AcDbEntity
  8
1
 62
     2
100
AcDbMText
 10
-99.55461552247775
 20
12.98686036548193
 30
0.0
 40
2.0
 41
0.0
 71
     5
 72
     1
  1
General Information\P- Simplified representation\P- Document excluded from change process\P- Linear dimensions [mm]
  7
CONVERTER_11
 73
     1
 44
1.20048019207683
  0
TEXT
  5
215
330
71
100
AcDbEntity
  8
1
 62
     7
100
AcDbText
 10
-27.21660079743052
 20
10.03686036548191
 30
0.0
 40
2.5
  1
3251018
 41
0.81
  7
CONVERTER_12
100
AcDbText
  0
MTEXT
  5
216
330
71
100
AcDbEntity
  8
1
 62
     2
100
AcDbMText
 10
-27.61660079743024
 20
16.23686036548202
 30
0.0
 40
1.8
 41
0.0
 71
     1
 72
     1
  1
ident.-No.
  7
CONVERTER_11
 73
     1
 44
1.20048019207683
  0
MTEXT
  5
217
330
71
100
AcDbEntity
  8
1
 62
     2
100
AcDbMText
 10
56.60979544764248
 20
24.73686036548202
 30
0.0
 40
1.8
 41
0.0
 71
     1
 72
     1
  1
scale
  7
CONVERTER_11
 73
     1
 44
1.20048019207683
  0
MTEXT
  5
219
330
71
100
AcDbEntity
  8
1
 62
     3
100
AcDbMText
 10
59.96899958848208
 20
18.53686036548211
 30
0.0
 40
2.5
 41
0.0
 71
     8
 72
     1
  1
1:1
  7
CONVERTER_13
 73
     1
 44
1.32052821128451
  0
TEXT
  5
21A
330
71
100
AcDbEntity
  8
1
 62
     7
100
AcDbText
 10
-27.61660079743024
 20
18.53686036548191
 30
0.0
 40
2.5
  1
00546370
 41
0.81
  7
CONVERTER_12
100
AcDbText
  0
MTEXT
  5
21C
330
71
100
AcDbEntity
  8
1
 62
     2
100
AcDbMText
 10
-27.61660079743024
 20
24.73686036548202
 30
0.0
 40
1.8
 41
0.0
 71
     1
 72
     1
  1
document-No. / RI
  7
CONVERTER_14
 73
     1
 44
1.32052821128451
  0
TEXT
  5
21D
330
71
100
AcDbEntity
  8
1
 62
     3
100
AcDbText
 10
0.18339920256977
 20
10.03686036548191
 30
0.0
 40
2.5
  1
TECDOC 2D_Productdrawing
 41
0.81
  7
CONVERTER_12
100
AcDbText
  0
MTEXT
  5
21E
330
71
100
AcDbEntity
  8
1
 62
     2
100
AcDbMText
 10
0.18339920256977
 20
16.23686036548193
 30
0.0
 40
1.8
 41
0.0
 71
     1
 72
     1
  1
document-type
  7
CONVERTER_11
 73
     1
 44
1.20048019207683
  0
MTEXT
  5
21F
330
71
100
AcDbEntity
  8
1
 62
     2
100
AcDbMText
 10
30.00979544764266
 20
24.73686036548193
 30
0.0
 40
1.8
 41
0.0
 71
     1
 72
     1
  1
date
  7
CONVERTER_11
 73
     1
 44
1.32052821128451
  0
TEXT
  5
220
330
71
100
AcDbEntity
  8
1
 62
     3
100
AcDbText
 10
30.00979544764266
 20
18.53686036548191
 30
0.0
 40
2.5
  1
29.12.2017
 41
0.81
  7
CONVERTER_12
100
AcDbText
  0
TEXT
  5
221
330
71
100
AcDbEntity
  8
1
 62
     7
100
AcDbText
 10
-7.58668857837444
 20
18.53686036548191
 30
0.0
 40
2.5
  1
01
 41
0.81
  7
CONVERTER_12
100
AcDbText
  0
TEXT
  5
222
330
71
100
AcDbEntity
  8
1
 62
     7
100
AcDbText
 10
-9.74305307541644
 20
18.53686036548191
 30
0.0
 40
2.5
  1
/
 41
0.9
  7
CONVERTER_11
100
AcDbText
  0
HATCH
  5
223
330
71
100
AcDbEntity
  8
1
  6
Continuous
 62
     2
100
AcDbHatch
 10
0.0
 20
0.0
 30
0.0
210
0.0
220
0.0
230
1.0
  2
_USER
 70
     0
 71
     1
 91
        1
 92
        1
 93
       12
 72
     1
 10
-47.44910008446914
 20
10.88955084167262
 11
-48.64189278663554
 21
10.88955084167262
 72
     1
 10
-48.64189278663554
 20
10.88955084167262
 11
-48.64189278663554
 21
12.02382295051643
 72
     1
 10
-48.64189278663554
 20
12.02382295051643
 11
-49.69155036454302
 21
12.02382295051643
 72
     1
 10
-49.69155036454302
 20
12.02382295051643
 11
-49.69155036454302
 21
10.88955084167262
 72
     1
 10
-49.69155036454302
 20
10.88955084167262
 11
-50.88434306670962
 21
10.88955084167262
 72
     1
 10
-50.88434306670962
 20
10.88955084167262
 11
-50.88434306670962
 21
13.94336036548381
 72
     1
 10
-50.88434306670962
 20
13.94336036548381
 11
-49.69155036454302
 21
13.94336036548381
 72
     1
 10
-49.69155036454302
 20
13.94336036548381
 11
-49.69155036454302
 21
12.87452703214922
 72
     1
 10
-49.69155036454302
 20
12.87452703214922
 11
-48.64189278663554
 21
12.87452703214922
 72
     1
 10
-48.64189278663554
 20
12.87452703214922
 11
-48.64189278663554
 21
13.94336036548381
 72
     1
 10
-48.64189278663554
 20
13.94336036548381
 11
-47.44910008446914
 21
13.94336036548381
 72
     1
 10
-47.44910008446914
 20
13.94336036548381
 11
-47.44910008446914
 21
10.88955084167262
 97
       12
330
190
330
191
330
17B
330
17A
330
179
330
18D
330
178
330
18E
330
18F
330
177
330
176
330
175
 75
     1
 76
     0
 52
45.0
 41
0.1
 77
     0
 78
     1
 53
45.0
 43
0.0
 44
0.0
 45
-0.0707106781186548
 46
0.0707106781186548
 79
     0
 98
        1
 10
0.0
 20
0.0
  0
HATCH
  5
224
330
71
100
AcDbEntity
  8
1
  6
Continuous
 62
     2
100
AcDbHatch
 10
0.0
 20
0.0
 30
0.0
210
0.0
220
0.0
230
1.0
  2
_USER
 70
     0
 71
     1
 91
        1
 92
        1
 93
       12
 72
     1
 10
-47.44910008446914
 20
10.88955084167262
 11
-48.64189278663554
 21
10.88955084167262
 72
     1
 10
-48.64189278663554
 20
10.88955084167262
 11
-48.64189278663554
 21
12.02382295051643
 72
     1
 10
-48.64189278663554
 20
12.02382295051643
 11
-49.69155036454302
 21
12.02382295051643
 72
     1
 10
-49.69155036454302
 20
12.02382295051643
 11
-49.69155036454302
 21
10.88955084167262
 72
     1
 10
-49.69155036454302
 20
10.88955084167262
 11
-50.88434306670962
 21
10.88955084167262
 72
     1
 10
-50.88434306670962
 20
10.88955084167262
 11
-50.88434306670962
 21
13.94336036548381
 72
     1
 10
-50.88434306670962
 20
13.94336036548381
 11
-49.69155036454302
 21
13.94336036548381
 72
     1
 10
-49.69155036454302
 20
13.94336036548381
 11
-49.69155036454302
 21
12.87452703214922
 72
     1
 10
-49.69155036454302
 20
12.87452703214922
 11
-48.64189278663554
 21
12.87452703214922
 72
     1
 10
-48.64189278663554
 20
12.87452703214922
 11
-48.64189278663554
 21
13.94336036548381
 72
     1
 10
-48.64189278663554
 20
13.94336036548381
 11
-47.44910008446914
 21
13.94336036548381
 72
     1
 10
-47.44910008446914
 20
13.94336036548381
 11
-47.44910008446914
 21
10.88955084167262
 97
       12
330
190
330
191
330
17B
330
17A
330
179
330
18D
330
178
330
18E
330
18F
330
177
330
176
330
175
 75
     1
 76
     0
 52
45.0
 41
0.1
 77
     0
 78
     1
 53
45.0
 43
0.0
 44
0.0
 45
-0.0707106781186548
 46
0.0707106781186548
 79
     0
 98
        1
 10
0.0
 20
0.0
  0
HATCH
  5
225
330
71
100
AcDbEntity
  8
1
  6
Continuous
 62
     2
100
AcDbHatch
 10
0.0
 20
0.0
 30
0.0
210
0.0
220
0.0
230
1.0
  2
_USER
 70
     0
 71
     1
 91
        1
 92
        1
 93
       10
 72
     1
 10
-45.20680073528084
 20
9.275394379104313
 11
-46.44730514553373
 21
10.58416988930941
 72
     1
 10
-46.44730514553373
 20
10.58416988930941
 11
-47.64009784770133
 21
10.58416988930941
 72
     1
 10
-47.64009784770133
 20
10.58416988930941
 11
-47.64009784770133
 21
7.530360365498325
 72
     1
 10
-47.64009784770133
 20
7.530360365498325
 11
-46.44730514553373
 21
7.530360365498325
 72
     1
 10
-46.44730514553373
 20
7.530360365498325
 11
-46.44730514553373
 21
8.839135875702908
 72
     1
 10
-46.44730514553373
 20
8.839135875702908
 11
-45.20680073528084
 21
7.530360365498325
 72
     1
 10
-45.20680073528084
 20
7.530360365498325
 11
-44.01400803311444
 21
7.530360365498325
 72
     1
 10
-44.01400803311444
 20
7.530360365498325
 11
-44.01400803311444
 21
10.58416988930941
 72
     1
 10
-44.01400803311444
 20
10.58416988930941
 11
-45.20680073528084
 21
10.58416988930941
 72
     1
 10
-45.20680073528084
 20
10.58416988930941
 11
-45.20680073528084
 21
9.275394379104313
 97
       10
330
19E
330
16E
330
16D
330
170
330
199
330
19A
330
16F
330
19B
330
19C
330
19D
 75
     1
 76
     0
 52
45.0
 41
0.1
 77
     0
 78
     1
 53
45.0
 43
0.0
 44
0.0
 45
-0.0707106781186548
 46
0.0707106781186548
 79
     0
 98
        1
 10
0.0
 20
0.0
  0
HATCH
  5
226
330
71
100
AcDbEntity
  8
1
  6
Continuous
 62
     2
100
AcDbHatch
 10
0.0
 20
0.0
 30
0.0
210
0.0
220
0.0
230
1.0
  2
_USER
 70
     0
 71
     1
 91
        1
 92
        1
 93
       10
 72
     1
 10
-45.20680073528084
 20
9.275394379104313
 11
-46.44730514553373
 21
10.58416988930941
 72
     1
 10
-46.44730514553373
 20
10.58416988930941
 11
-47.64009784770133
 21
10.58416988930941
 72
     1
 10
-47.64009784770133
 20
10.58416988930941
 11
-47.64009784770133
 21
7.530360365498325
 72
     1
 10
-47.64009784770133
 20
7.530360365498325
 11
-46.44730514553373
 21
7.530360365498325
 72
     1
 10
-46.44730514553373
 20
7.530360365498325
 11
-46.44730514553373
 21
8.839135875702908
 72
     1
 10
-46.44730514553373
 20
8.839135875702908
 11
-45.20680073528084
 21
7.530360365498325
 72
     1
 10
-45.20680073528084
 20
7.530360365498325
 11
-44.01400803311444
 21
7.530360365498325
 72
     1
 10
-44.01400803311444
 20
7.530360365498325
 11
-44.01400803311444
 21
10.58416988930941
 72
     1
 10
-44.01400803311444
 20
10.58416988930941
 11
-45.20680073528084
 21
10.58416988930941
 72
     1
 10
-45.20680073528084
 20
10.58416988930941
 11
-45.20680073528084
 21
9.275394379104313
 97
       10
330
19E
330
16E
330
16D
330
170
330
199
330
19A
330
16F
330
19B
330
19C
330
19D
 75
     1
 76
     0
 52
45.0
 41
0.1
 77
     0
 78
     1
 53
45.0
 43
0.0
 44
0.0
 45
-0.0707106781186548
 46
0.0707106781186548
 79
     0
 98
        1
 10
0.0
 20
0.0
  0
HATCH
  5
227
330
71
100
AcDbEntity
  8
1
  6
Continuous
 62
     2
100
AcDbHatch
 10
0.0
 20
0.0
 30
0.0
210
0.0
220
0.0
230
1.0
  2
_USER
 70
     0
 71
     1
 91
        1
 92
        1
 93
       10
 72
     1
 10
-39.95836191486112
 20
12.63458485527863
 11
-41.19886632511512
 21
13.94336036548381
 72
     1
 10
-41.19886632511512
 20
13.94336036548381
 11
-42.39165902728163
 21
13.94336036548381
 72
     1
 10
-42.39165902728163
 20
13.94336036548381
 11
-42.39165902728163
 21
10.88955084167262
 72
     1
 10
-42.39165902728163
 20
10.88955084167262
 11
-41.19886632511512
 21
10.88955084167262
 72
     1
 10
-41.19886632511512
 20
10.88955084167262
 11
-41.19886632511512
 21
12.19832635187731
 72
     1
 10
-41.19886632511512
 20
12.19832635187731
 11
-39.95836191486112
 21
10.88955084167262
 72
     1
 10
-39.95836191486112
 20
10.88955084167262
 11
-38.76556921269452
 21
10.88955084167262
 72
     1
 10
-38.76556921269452
 20
10.88955084167262
 11
-38.76556921269452
 21
13.94336036548381
 72
     1
 10
-38.76556921269452
 20
13.94336036548381
 11
-39.95836191486112
 21
13.94336036548381
 72
     1
 10
-39.95836191486112
 20
13.94336036548381
 11
-39.95836191486112
 21
12.63458485527863
 97
       10
330
1A3
330
16B
330
16A
330
1A4
330
169
330
19F
330
1A0
330
1A1
330
1A2
330
16C
 75
     1
 76
     0
 52
45.0
 41
0.1
 77
     0
 78
     1
 53
45.0
 43
0.0
 44
0.0
 45
-0.0707106781186548
 46
0.0707106781186548
 79
     0
 98
        1
 10
0.0
 20
0.0
  0
HATCH
  5
228
330
71
100
AcDbEntity
  8
1
  6
Continuous
 62
     2
100
AcDbHatch
 10
0.0
 20
0.0
 30
0.0
210
0.0
220
0.0
230
1.0
  2
_USER
 70
     0
 71
     1
 91
        1
 92
        1
 93
       10
 72
     1
 10
-39.95836191486112
 20
12.63458485527863
 11
-41.19886632511512
 21
13.94336036548381
 72
     1
 10
-41.19886632511512
 20
13.94336036548381
 11
-42.39165902728163
 21
13.94336036548381
 72
     1
 10
-42.39165902728163
 20
13.94336036548381
 11
-42.39165902728163
 21
10.88955084167262
 72
     1
 10
-42.39165902728163
 20
10.88955084167262
 11
-41.19886632511512
 21
10.88955084167262
 72
     1
 10
-41.19886632511512
 20
10.88955084167262
 11
-41.19886632511512
 21
12.19832635187731
 72
     1
 10
-41.19886632511512
 20
12.19832635187731
 11
-39.95836191486112
 21
10.88955084167262
 72
     1
 10
-39.95836191486112
 20
10.88955084167262
 11
-38.76556921269452
 21
10.88955084167262
 72
     1
 10
-38.76556921269452
 20
10.88955084167262
 11
-38.76556921269452
 21
13.94336036548381
 72
     1
 10
-38.76556921269452
 20
13.94336036548381
 11
-39.95836191486112
 21
13.94336036548381
 72
     1
 10
-39.95836191486112
 20
13.94336036548381
 11
-39.95836191486112
 21
12.63458485527863
 97
       10
330
1A3
330
16B
330
16A
330
1A4
330
169
330
19F
330
1A0
330
1A1
330
1A2
330
16C
 75
     1
 76
     0
 52
45.0
 41
0.1
 77
     0
 78
     1
 53
45.0
 43
0.0
 44
0.0
 45
-0.0707106781186548
 46
0.0707106781186548
 79
     0
 98
        1
 10
0.0
 20
0.0
  0
HATCH
  5
229
330
71
100
AcDbEntity
  8
1
  6
Continuous
 62
     2
100
AcDbHatch
 10
0.0
 20
0.0
 30
0.0
210
0.0
220
0.0
230
1.0
  2
_USER
 70
     0
 71
     1
 91
        1
 92
        1
 93
        8
 72
     1
 10
-41.05588213174062
 20
10.58416988930941
 11
-43.87087290885424
 21
10.58416988930941
 72
     1
 10
-43.87087290885424
 20
10.58416988930941
 11
-43.87087290885424
 21
9.798904583185816
 72
     1
 10
-43.87087290885424
 20
9.798904583185816
 11
-43.05977387137963
 21
9.798904583185816
 72
     1
 10
-43.05977387137963
 20
9.798904583185816
 11
-43.05977387137963
 21
7.530360365498325
 72
     1
 10
-43.05977387137963
 20
7.530360365498325
 11
-41.86698116921312
 21
7.530360365498325
 72
     1
 10
-41.86698116921312
 20
7.530360365498325
 11
-41.86698116921312
 21
9.798904583185816
 72
     1
 10
-41.86698116921312
 20
9.798904583185816
 11
-41.05588213174062
 21
9.798904583185816
 72
     1
 10
-41.05588213174062
 20
9.798904583185816
 11
-41.05588213174062
 21
10.58416988930941
 97
        8
330
165
330
1A5
330
164
330
1A6
330
1A7
330
168
330
167
330
166
 75
     1
 76
     0
 52
45.0
 41
0.1
 77
     0
 78
     1
 53
45.0
 43
0.0
 44
0.0
 45
-0.0707106781186548
 46
0.0707106781186548
 79
     0
 98
        1
 10
0.0
 20
0.0
  0
HATCH
  5
22A
330
71
100
AcDbEntity
  8
1
  6
Continuous
 62
     2
100
AcDbHatch
 10
0.0
 20
0.0
 30
0.0
210
0.0
220
0.0
230
1.0
  2
_USER
 70
     0
 71
     1
 91
        1
 92
        1
 93
        8
 72
     1
 10
-41.05588213174062
 20
10.58416988930941
 11
-43.87087290885424
 21
10.58416988930941
 72
     1
 10
-43.87087290885424
 20
10.58416988930941
 11
-43.87087290885424
 21
9.798904583185816
 72
     1
 10
-43.87087290885424
 20
9.798904583185816
 11
-43.05977387137963
 21
9.798904583185816
 72
     1
 10
-43.05977387137963
 20
9.798904583185816
 11
-43.05977387137963
 21
7.530360365498325
 72
     1
 10
-43.05977387137963
 20
7.530360365498325
 11
-41.86698116921312
 21
7.530360365498325
 72
     1
 10
-41.86698116921312
 20
7.530360365498325
 11
-41.86698116921312
 21
9.798904583185816
 72
     1
 10
-41.86698116921312
 20
9.798904583185816
 11
-41.05588213174062
 21
9.798904583185816
 72
     1
 10
-41.05588213174062
 20
9.798904583185816
 11
-41.05588213174062
 21
10.58416988930941
 97
        8
330
165
330
1A5
330
164
330
1A6
330
1A7
330
168
330
167
330
166
 75
     1
 76
     0
 52
45.0
 41
0.1
 77
     0
 78
     1
 53
45.0
 43
0.0
 44
0.0
 45
-0.0707106781186548
 46
0.0707106781186548
 79
     0
 98
        1
 10
0.0
 20
0.0
  0
HATCH
  5
22B
330
71
100
AcDbEntity
  8
1
  6
Continuous
 62
     2
100
AcDbHatch
 10
0.0
 20
0.0
 30
0.0
210
0.0
220
0.0
230
1.0
  2
_USER
 70
     0
 71
     1
 91
        2
 92
        1
 93
        8
 72
     1
 10
-38.91745467579364
 20
7.530360365498325
 11
-39.12893472926942
 21
8.071320909716206
 72
     1
 10
-39.12893472926942
 20
8.071320909716206
 11
-40.26137630594323
 21
8.071320909716206
 72
     1
 10
-40.26137630594323
 20
8.071320909716206
 11
-40.47285635941904
 21
7.530360365498325
 72
     1
 10
-40.47285635941904
 20
7.530360365498325
 11
-41.71336076967202
 21
7.530360365498325
 72
     1
 10
-41.71336076967202
 20
7.530360365498325
 11
-40.31540772273272
 21
10.58416988930941
 72
     1
 10
-40.31540772273272
 20
10.58416988930941
 11
-39.07490331248002
 21
10.58416988930941
 72
     1
 10
-39.07490331248002
 20
10.58416988930941
 11
-37.67695026553972
 21
7.530360365498325
 72
     1
 10
-37.67695026553972
 20
7.530360365498325
 11
-38.91745467579364
 21
7.530360365498325
 97
        8
330
1A9
330
1AA
330
161
330
1AB
330
160
330
163
330
1A8
330
162
 92
       16
 93
        3
 72
     1
 10
-39.99532075479823
 20
8.75188417502281
 11
-39.69515551760583
 21
9.51969914100951
 72
     1
 10
-39.69515551760583
 20
9.51969914100951
 11
-39.39499028041573
 21
8.75188417502281
 72
     1
 10
-39.39499028041573
 20
8.75188417502281
 11
-39.99532075479823
 21
8.75188417502281
 97
        3
330
15F
330
1AD
330
1AC
 75
     1
 76
     0
 52
45.0
 41
0.1
 77
     0
 78
     1
 53
45.0
 43
0.0
 44
0.0
 45
-0.0707106781186548
 46
0.0707106781186548
 79
     0
 98
        1
 10
0.0
 20
0.0
  0
HATCH
  5
22C
330
71
100
AcDbEntity
  8
1
  6
Continuous
 62
     2
100
AcDbHatch
 10
0.0
 20
0.0
 30
0.0
210
0.0
220
0.0
230
1.0
  2
_USER
 70
     0
 71
     1
 91
        2
 92
        1
 93
        8
 72
     1
 10
-38.91745467579364
 20
7.530360365498325
 11
-39.12893472926942
 21
8.071320909716206
 72
     1
 10
-39.12893472926942
 20
8.071320909716206
 11
-40.26137630594323
 21
8.071320909716206
 72
     1
 10
-40.26137630594323
 20
8.071320909716206
 11
-40.47285635941904
 21
7.530360365498325
 72
     1
 10
-40.47285635941904
 20
7.530360365498325
 11
-41.71336076967202
 21
7.530360365498325
 72
     1
 10
-41.71336076967202
 20
7.530360365498325
 11
-40.31540772273272
 21
10.58416988930941
 72
     1
 10
-40.31540772273272
 20
10.58416988930941
 11
-39.07490331248002
 21
10.58416988930941
 72
     1
 10
-39.07490331248002
 20
10.58416988930941
 11
-37.67695026553972
 21
7.530360365498325
 72
     1
 10
-37.67695026553972
 20
7.530360365498325
 11
-38.91745467579364
 21
7.530360365498325
 97
        8
330
1A9
330
1AA
330
161
330
1AB
330
160
330
163
330
1A8
330
162
 92
       16
 93
        3
 72
     1
 10
-39.99532075479823
 20
8.75188417502281
 11
-39.69515551760583
 21
9.51969914100951
 72
     1
 10
-39.69515551760583
 20
9.51969914100951
 11
-39.39499028041573
 21
8.75188417502281
 72
     1
 10
-39.39499028041573
 20
8.75188417502281
 11
-39.99532075479823
 21
8.75188417502281
 97
        3
330
15F
330
1AD
330
1AC
 75
     1
 76
     0
 52
45.0
 41
0.1
 77
     0
 78
     1
 53
45.0
 43
0.0
 44
0.0
 45
-0.0707106781186548
 46
0.0707106781186548
 79
     0
 98
        1
 10
0.0
 20
0.0
  0
HATCH
  5
22D
330
71
100
AcDbEntity
  8
1
  6
Continuous
 62
     2
100
AcDbHatch
 10
0.0
 20
0.0
 30
0.0
210
0.0
220
0.0
230
1.0
  2
_USER
 70
     0
 71
     1
 91
        1
 92
        1
 93
        4
 72
     1
 10
-37.28650626200772
 20
10.88955084167262
 11
-38.52701067226062
 21
10.88955084167262
 72
     1
 10
-38.52701067226062
 20
10.88955084167262
 11
-38.52701067226062
 21
13.94336036548381
 72
     1
 10
-38.52701067226062
 20
13.94336036548381
 11
-37.28650626200772
 21
13.94336036548381
 72
     1
 10
-37.28650626200772
 20
13.94336036548381
 11
-37.28650626200772
 21
10.88955084167262
 97
        4
330
15C
330
15E
330
1AE
330
15D
 75
     1
 76
     0
 52
45.0
 41
0.1
 77
     0
 78
     1
 53
45.0
 43
0.0
 44
0.0
 45
-0.0707106781186548
 46
0.0707106781186548
 79
     0
 98
        1
 10
0.0
 20
0.0
  0
HATCH
  5
22E
330
71
100
AcDbEntity
  8
1
  6
Continuous
 62
     2
100
AcDbHatch
 10
0.0
 20
0.0
 30
0.0
210
0.0
220
0.0
230
1.0
  2
_USER
 70
     0
 71
     1
 91
        1
 92
        1
 93
        4
 72
     1
 10
-37.28650626200772
 20
10.88955084167262
 11
-38.52701067226062
 21
10.88955084167262
 72
     1
 10
-38.52701067226062
 20
10.88955084167262
 11
-38.52701067226062
 21
13.94336036548381
 72
     1
 10
-38.52701067226062
 20
13.94336036548381
 11
-37.28650626200772
 21
13.94336036548381
 72
     1
 10
-37.28650626200772
 20
13.94336036548381
 11
-37.28650626200772
 21
10.88955084167262
 97
        4
330
15C
330
15E
330
1AE
330
15D
 75
     1
 76
     0
 52
45.0
 41
0.1
 77
     0
 78
     1
 53
45.0
 43
0.0
 44
0.0
 45
-0.0707106781186548
 46
0.0707106781186548
 79
     0
 98
        1
 10
0.0
 20
0.0
  0
HATCH
  5
22F
330
71
100
AcDbEntity
  8
1
  6
Continuous
 62
     2
100
AcDbHatch
 10
0.0
 20
0.0
 30
0.0
210
0.0
220
0.0
230
1.0
  2
_USER
 70
     0
 71
     1
 91
        1
 92
        1
 93
       12
 72
     1
 10
-33.06402009633692
 20
13.94336036548381
 11
-34.36654972710343
 21
12.47040983544761
 72
     1
 10
-34.36654972710343
 20
12.47040983544761
 11
-32.96859668016313
 21
10.88955084167262
 72
     1
 10
-32.96859668016313
 20
10.88955084167262
 11
-34.37132089791143
 21
10.88955084167262
 72
     1
 10
-34.37132089791143
 20
10.88955084167262
 11
-35.06791183597693
 21
11.67728262696633
 72
     1
 10
-35.06791183597693
 20
11.67728262696633
 11
-35.76450277404263
 21
10.88955084167262
 72
     1
 10
-35.76450277404263
 20
10.88955084167262
 11
-37.16722699179084
 21
10.88955084167262
 72
     1
 10
-37.16722699179084
 20
10.88955084167262
 11
-35.76927394485054
 21
12.47040983544761
 72
     1
 10
-35.76927394485054
 20
12.47040983544761
 11
-37.07180357561802
 21
13.94336036548381
 72
     1
 10
-37.07180357561802
 20
13.94336036548381
 11
-35.66907935786873
 21
13.94336036548381
 72
     1
 10
-35.66907935786873
 20
13.94336036548381
 11
-35.06791183597693
 21
13.26353704392832
 72
     1
 10
-35.06791183597693
 20
13.26353704392832
 11
-34.46674431408414
 21
13.94336036548381
 72
     1
 10
-34.46674431408414
 20
13.94336036548381
 11
-33.06402009633692
 21
13.94336036548381
 97
       12
330
157
330
156
330
155
330
1B2
330
1B3
330
1AF
330
1B0
330
15B
330
15A
330
159
330
158
330
1B1
 75
     1
 76
     0
 52
45.0
 41
0.1
 77
     0
 78
     1
 53
45.0
 43
0.0
 44
0.0
 45
-0.0707106781186548
 46
0.0707106781186548
 79
     0
 98
        1
 10
0.0
 20
0.0
  0
HATCH
  5
230
330
71
100
AcDbEntity
  8
1
  6
Continuous
 62
     2
100
AcDbHatch
 10
0.0
 20
0.0
 30
0.0
210
0.0
220
0.0
230
1.0
  2
_USER
 70
     0
 71
     1
 91
        1
 92
        1
 93
       12
 72
     1
 10
-33.06402009633692
 20
13.94336036548381
 11
-34.36654972710343
 21
12.47040983544761
 72
     1
 10
-34.36654972710343
 20
12.47040983544761
 11
-32.96859668016313
 21
10.88955084167262
 72
     1
 10
-32.96859668016313
 20
10.88955084167262
 11
-34.37132089791143
 21
10.88955084167262
 72
     1
 10
-34.37132089791143
 20
10.88955084167262
 11
-35.06791183597693
 21
11.67728262696633
 72
     1
 10
-35.06791183597693
 20
11.67728262696633
 11
-35.76450277404263
 21
10.88955084167262
 72
     1
 10
-35.76450277404263
 20
10.88955084167262
 11
-37.16722699179084
 21
10.88955084167262
 72
     1
 10
-37.16722699179084
 20
10.88955084167262
 11
-35.76927394485054
 21
12.47040983544761
 72
     1
 10
-35.76927394485054
 20
12.47040983544761
 11
-37.07180357561802
 21
13.94336036548381
 72
     1
 10
-37.07180357561802
 20
13.94336036548381
 11
-35.66907935786873
 21
13.94336036548381
 72
     1
 10
-35.66907935786873
 20
13.94336036548381
 11
-35.06791183597693
 21
13.26353704392832
 72
     1
 10
-35.06791183597693
 20
13.26353704392832
 11
-34.46674431408414
 21
13.94336036548381
 72
     1
 10
-34.46674431408414
 20
13.94336036548381
 11
-33.06402009633692
 21
13.94336036548381
 97
       12
330
157
330
156
330
155
330
1B2
330
1B3
330
1AF
330
1B0
330
15B
330
15A
330
159
330
158
330
1B1
 75
     1
 76
     0
 52
45.0
 41
0.1
 77
     0
 78
     1
 53
45.0
 43
0.0
 44
0.0
 45
-0.0707106781186548
 46
0.0707106781186548
 79
     0
 98
        1
 10
0.0
 20
0.0
  0
HATCH
  5
231
330
71
100
AcDbEntity
  8
1
  6
Continuous
 62
     2
100
AcDbHatch
 10
0.0
 20
0.0
 30
0.0
210
0.0
220
0.0
230
1.0
  2
_USER
 70
     0
 71
     1
 91
        2
 92
        1
 93
        6
 72
     1
 10
-52.08175551048294
 20
11.83262908281643
 11
-52.84052309826322
 21
11.83262908281643
 72
     1
 10
-52.84052309826322
 20
11.83262908281643
 11
-52.84052309826322
 21
10.88955084167262
 72
     1
 10
-52.84052309826322
 20
10.88955084167262
 11
-54.08102750851734
 21
10.88955084167262
 72
     1
 10
-54.08102750851734
 20
10.88955084167262
 11
-54.08102750851734
 21
13.94336036548381
 72
     1
 10
-54.08102750851734
 20
13.94336036548381
 11
-52.08175551048294
 21
13.94336036548381
 72
     2
 10
-52.08175551048294
 20
12.88799472415013
 40
1.055365641333699
 50
270.0
 51
450.0
 73
     0
 97
        6
330
17F
330
17E
330
18B
330
18A
330
180
330
1D0
 92
       16
 93
        4
 72
     2
 10
-52.52322803672132
 20
12.92739069537262
 40
0.35286382467112
 50
270.0
 51
450.0
 73
     1
 72
     1
 10
-52.52322803672132
 20
13.28025452004371
 11
-52.84052309826322
 21
13.28025452004371
 72
     1
 10
-52.84052309826322
 20
13.28025452004371
 11
-52.84052309826322
 21
12.5745268707015
 72
     1
 10
-52.84052309826322
 20
12.5745268707015
 11
-52.52322803672132
 21
12.5745268707015
 97
        4
330
1E4
330
17C
330
18C
330
17D
 75
     1
 76
     0
 52
45.0
 41
0.1
 77
     0
 78
     1
 53
45.0
 43
0.0
 44
0.0
 45
-0.0707106781186548
 46
0.0707106781186548
 79
     0
 98
        1
 10
0.0
 20
0.0
  0
HATCH
  5
232
330
71
100
AcDbEntity
  8
1
  6
Continuous
 62
     2
100
AcDbHatch
 10
0.0
 20
0.0
 30
0.0
210
0.0
220
0.0
230
1.0
  2
_USER
 70
     0
 71
     1
 91
        2
 92
        1
 93
        6
 72
     1
 10
-52.08175551048294
 20
11.83262908281643
 11
-52.84052309826322
 21
11.83262908281643
 72
     1
 10
-52.84052309826322
 20
11.83262908281643
 11
-52.84052309826322
 21
10.88955084167262
 72
     1
 10
-52.84052309826322
 20
10.88955084167262
 11
-54.08102750851734
 21
10.88955084167262
 72
     1
 10
-54.08102750851734
 20
10.88955084167262
 11
-54.08102750851734
 21
13.94336036548381
 72
     1
 10
-54.08102750851734
 20
13.94336036548381
 11
-52.08175551048294
 21
13.94336036548381
 72
     2
 10
-52.08175551048294
 20
12.88799472415013
 40
1.055365641333699
 50
270.0
 51
450.0
 73
     0
 97
        6
330
17F
330
17E
330
18B
330
18A
330
180
330
1D0
 92
       16
 93
        4
 72
     2
 10
-52.52322803672132
 20
12.92739069537262
 40
0.35286382467112
 50
270.0
 51
450.0
 73
     1
 72
     1
 10
-52.52322803672132
 20
13.28025452004371
 11
-52.84052309826322
 21
13.28025452004371
 72
     1
 10
-52.84052309826322
 20
13.28025452004371
 11
-52.84052309826322
 21
12.5745268707015
 72
     1
 10
-52.84052309826322
 20
12.5745268707015
 11
-52.52322803672132
 21
12.5745268707015
 97
        4
330
1E4
330
17C
330
18C
330
17D
 75
     1
 76
     0
 52
45.0
 41
0.1
 77
     0
 78
     1
 53
45.0
 43
0.0
 44
0.0
 45
-0.0707106781186548
 46
0.0707106781186548
 79
     0
 98
        1
 10
0.0
 20
0.0
  0
HATCH
  5
233
330
71
100
AcDbEntity
  8
1
  6
Continuous
 62
     2
100
AcDbHatch
 10
0.0
 20
0.0
 30
0.0
210
0.0
220
0.0
230
1.0
  2
_USER
 70
     0
 71
     1
 91
        2
 92
        1
 93
        4
 72
     2
 10
-49.52521276212383
 20
8.518690117100817
 40
2.065479772208568
 50
62.45185182430637
 51
117.5481481756666
 73
     1
 72
     2
 10
-49.80615265395713
 20
9.05726512740361
 40
1.458034083651493
 50
117.5481481756627
 51
242.4518518243373
 73
     1
 72
     2
 10
-49.52521276212383
 20
9.595840137706915
 40
2.065479772208512
 50
242.45185182434
 51
297.5481481756871
 73
     1
 72
     2
 10
-49.24427287029053
 20
9.05726512740361
 40
1.458034083652003
 50
297.548148175701
 51
422.451851824299
 73
     1
 97
        4
330
1DC
330
1DB
330
1DD
330
1DA
 92
       16
 93
        4
 72
     2
 10
-49.72495279847024
 20
9.05726512740361
 40
0.7717997786796947
 50
321.8795802028417
 51
398.1204197971533
 73
     1
 72
     2
 10
-49.52521276212383
 20
9.21399630552412
 40
0.5179085730132998
 50
38.12041979714704
 51
141.8795802028588
 73
     1
 72
     2
 10
-49.32547272577773
 20
9.05726512740361
 40
0.7717997786794633
 50
141.8795802028363
 51
218.1204197971687
 73
     1
 72
     2
 10
-49.52521276212383
 20
8.900533949283613
 40
0.5179085730137354
 50
218.1204197971931
 51
321.879580202801
 73
     1
 97
        4
330
1F8
330
1F5
330
1F6
330
1F7
 75
     1
 76
     0
 52
45.0
 41
0.1
 77
     0
 78
     1
 53
45.0
 43
0.0
 44
0.0
 45
-0.0707106781186548
 46
0.0707106781186548
 79
     0
 98
        1
 10
0.0
 20
0.0
  0
HATCH
  5
234
330
71
100
AcDbEntity
  8
1
  6
Continuous
 62
     2
100
AcDbHatch
 10
0.0
 20
0.0
 30
0.0
210
0.0
220
0.0
230
1.0
  2
_USER
 70
     0
 71
     1
 91
        2
 92
        1
 93
        4
 72
     2
 10
-49.52521276212383
 20
8.518690117100817
 40
2.065479772208568
 50
62.45185182430637
 51
117.5481481756666
 73
     1
 72
     2
 10
-49.80615265395713
 20
9.05726512740361
 40
1.458034083651493
 50
117.5481481756627
 51
242.4518518243373
 73
     1
 72
     2
 10
-49.52521276212383
 20
9.595840137706915
 40
2.065479772208512
 50
242.45185182434
 51
297.5481481756871
 73
     1
 72
     2
 10
-49.24427287029053
 20
9.05726512740361
 40
1.458034083652003
 50
297.548148175701
 51
422.451851824299
 73
     1
 97
        4
330
1DC
330
1DB
330
1DD
330
1DA
 92
       16
 93
        4
 72
     2
 10
-49.72495279847024
 20
9.05726512740361
 40
0.7717997786796947
 50
321.8795802028417
 51
398.1204197971533
 73
     1
 72
     2
 10
-49.52521276212383
 20
9.21399630552412
 40
0.5179085730132998
 50
38.12041979714704
 51
141.8795802028588
 73
     1
 72
     2
 10
-49.32547272577773
 20
9.05726512740361
 40
0.7717997786794633
 50
141.8795802028363
 51
218.1204197971687
 73
     1
 72
     2
 10
-49.52521276212383
 20
8.900533949283613
 40
0.5179085730137354
 50
218.1204197971931
 51
321.879580202801
 73
     1
 97
        4
330
1F8
330
1F5
330
1F6
330
1F7
 75
     1
 76
     0
 52
45.0
 41
0.1
 77
     0
 78
     1
 53
45.0
 43
0.0
 44
0.0
 45
-0.0707106781186548
 46
0.0707106781186548
 79
     0
 98
        1
 10
0.0
 20
0.0
  0
HATCH
  5
235
330
71
100
AcDbEntity
  8
1
  6
Continuous
 62
     2
100
AcDbHatch
 10
0.0
 20
0.0
 30
0.0
210
0.0
220
0.0
230
1.0
  2
_USER
 70
     0
 71
     1
 91
        2
 92
        1
 93
       12
 72
     1
 10
-42.63021756771454
 20
13.24534676004083
 11
-43.96614539414222
 21
13.24534676004083
 72
     1
 10
-43.96614539414222
 20
13.24534676004083
 11
-43.96614539414222
 21
12.76546240629912
 72
     1
 10
-43.96614539414222
 20
12.76546240629912
 11
-42.63021756771454
 21
12.76546240629912
 72
     1
 10
-42.63021756771454
 20
12.76546240629912
 11
-42.63021756771454
 21
12.06744880085682
 72
     1
 10
-42.63021756771454
 20
12.06744880085682
 11
-43.96614539414222
 21
12.06744880085682
 72
     1
 10
-43.96614539414222
 20
12.06744880085682
 11
-43.96614539414222
 21
11.58756444711511
 72
     1
 10
-43.96614539414222
 20
11.58756444711511
 11
-42.63021756771454
 21
11.58756444711511
 72
     1
 10
-42.63021756771454
 20
11.58756444711511
 11
-42.63021756771454
 21
10.88955084167262
 72
     1
 10
-42.63021756771454
 20
10.88955084167262
 11
-45.78053729149553
 21
10.88955084167262
 72
     2
 10
-45.78053729149553
 20
12.41645560357793
 40
1.526904761905881
 50
90.0
 51
270.0
 73
     0
 72
     1
 10
-45.78053729149553
 20
13.94336036548381
 11
-42.63021756771454
 21
13.94336036548381
 72
     1
 10
-42.63021756771454
 20
13.94336036548381
 11
-42.63021756771454
 21
13.24534676004083
 97
       12
330
193
330
1E5
330
194
330
195
330
196
330
197
330
174
330
173
330
172
330
171
330
198
330
192
 92
       16
 93
        4
 72
     2
 10
-45.56426528133034
 20
12.57318678169841
 40
0.5179085730135321
 50
38.12041979714286
 51
141.8795802028484
 73
     1
 72
     2
 10
-45.36452524498404
 20
12.41645560357793
 40
0.7717997786796724
 50
141.8795802028404
 51
218.120419797156
 73
     1
 72
     2
 10
-45.56426528133034
 20
12.25972442545751
 40
0.5179085730134315
 50
218.1204197971516
 51
321.8795802028571
 73
     1
 72
     2
 10
-45.76400531767652
 20
12.41645560357793
 40
0.7717997786796351
 50
321.879580202844
 51
398.1204197971596
 73
     1
 97
        4
330
1DF
330
1DE
330
1D9
330
1D8
 75
     1
 76
     0
 52
45.0
 41
0.1
 77
     0
 78
     1
 53
45.0
 43
0.0
 44
0.0
 45
-0.0707106781186548
 46
0.0707106781186548
 79
     0
 98
        1
 10
0.0
 20
0.0
  0
HATCH
  5
236
330
71
100
AcDbEntity
  8
1
  6
Continuous
 62
     2
100
AcDbHatch
 10
0.0
 20
0.0
 30
0.0
210
0.0
220
0.0
230
1.0
  2
_USER
 70
     0
 71
     1
 91
        2
 92
        1
 93
       12
 72
     1
 10
-42.63021756771454
 20
13.24534676004083
 11
-43.96614539414222
 21
13.24534676004083
 72
     1
 10
-43.96614539414222
 20
13.24534676004083
 11
-43.96614539414222
 21
12.76546240629912
 72
     1
 10
-43.96614539414222
 20
12.76546240629912
 11
-42.63021756771454
 21
12.76546240629912
 72
     1
 10
-42.63021756771454
 20
12.76546240629912
 11
-42.63021756771454
 21
12.06744880085682
 72
     1
 10
-42.63021756771454
 20
12.06744880085682
 11
-43.96614539414222
 21
12.06744880085682
 72
     1
 10
-43.96614539414222
 20
12.06744880085682
 11
-43.96614539414222
 21
11.58756444711511
 72
     1
 10
-43.96614539414222
 20
11.58756444711511
 11
-42.63021756771454
 21
11.58756444711511
 72
     1
 10
-42.63021756771454
 20
11.58756444711511
 11
-42.63021756771454
 21
10.88955084167262
 72
     1
 10
-42.63021756771454
 20
10.88955084167262
 11
-45.78053729149553
 21
10.88955084167262
 72
     2
 10
-45.78053729149553
 20
12.41645560357793
 40
1.526904761905881
 50
90.0
 51
270.0
 73
     0
 72
     1
 10
-45.78053729149553
 20
13.94336036548381
 11
-42.63021756771454
 21
13.94336036548381
 72
     1
 10
-42.63021756771454
 20
13.94336036548381
 11
-42.63021756771454
 21
13.24534676004083
 97
       12
330
193
330
1E5
330
194
330
195
330
196
330
197
330
174
330
173
330
172
330
171
330
198
330
192
 92
       16
 93
        4
 72
     2
 10
-45.56426528133034
 20
12.57318678169841
 40
0.5179085730135321
 50
38.12041979714286
 51
141.8795802028484
 73
     1
 72
     2
 10
-45.36452524498404
 20
12.41645560357793
 40
0.7717997786796724
 50
141.8795802028404
 51
218.120419797156
 73
     1
 72
     2
 10
-45.56426528133034
 20
12.25972442545751
 40
0.5179085730134315
 50
218.1204197971516
 51
321.8795802028571
 73
     1
 72
     2
 10
-45.76400531767652
 20
12.41645560357793
 40
0.7717997786796351
 50
321.879580202844
 51
398.1204197971596
 73
     1
 97
        4
330
1DF
330
1DE
330
1D9
330
1D8
 75
     1
 76
     0
 52
45.0
 41
0.1
 77
     0
 78
     1
 53
45.0
 43
0.0
 44
0.0
 45
-0.0707106781186548
 46
0.0707106781186548
 79
     0
 98
        1
 10
0.0
 20
0.0
  0
HATCH
  5
237
330
71
100
AcDbEntity
  8
1
  6
Continuous
 62
     2
100
AcDbHatch
 10
0.0
 20
0.0
 30
0.0
210
0.0
220
0.0
230
1.0
  2
_USER
 70
     0
 71
     1
 91
        4
 92
        1
 93
        8
 72
     1
 10
-54.55814458938414
 20
13.51911575008182
 11
-54.55814458938414
 21
7.954604980881612
 72
     2
 10
-54.98238920476803
 20
7.954604980881612
 40
0.4242446153832873
 50
0.0
 51
90.0
 73
     0
 72
     1
 10
-54.98238920476803
 20
7.530360365498325
 11
-60.45570129548483
 21
7.530360365498325
 72
     2
 10
-60.45570129548483
 20
7.954604980881612
 40
0.4242446153828041
 50
90.0
 51
180.0
 73
     0
 72
     1
 10
-60.87994591086763
 20
7.954604980881612
 11
-60.87994591086763
 21
13.51911575008182
 72
     2
 10
-60.45570129548483
 20
13.51911575008182
 40
0.4242446153838006
 50
180.0
 51
270.0
 73
     0
 72
     1
 10
-60.45570129548483
 20
13.94336036546562
 11
-54.98238920476803
 21
13.94336036546562
 72
     2
 10
-54.98238920476803
 20
13.51911575008182
 40
0.4242446153838912
 50
270.0
 51
360.0
 73
     0
 97
        8
330
187
330
1D5
330
188
330
1E0
330
185
330
1D7
330
186
330
1D6
 92
       16
 93
        1
 72
     2
 10
-57.83611564496732
 20
11.20023352172632
 40
0.4709789327785145
 50
0.0
 51
360.0
 73
     1
 97
        1
330
1FB
 92
       16
 93
        8
 72
     2
 10
-57.28625793220664
 20
10.09109192175791
 40
0.3157169230765314
 50
115.3740086783506
 51
180.0
 73
     1
 72
     1
 10
-57.60197485528343
 20
10.09109192175791
 11
-57.60197485528343
 21
9.509240515062828
 72
     2
 10
-57.28625793220664
 20
9.509240515062828
 40
0.315716923076792
 50
180.0
 51
269.8110329574529
 73
     1
 72
     2
 10
-57.28064179689662
 20
11.21207546263182
 40
2.018561131933269
 50
269.8110329575857
 51
450.1889670424143
 73
     1
 72
     2
 10
-57.28625793220664
 20
12.91491041020092
 40
0.3157169230760746
 50
90.18896704254722
 51
180.0
 73
     1
 72
     1
 10
-57.60197485528343
 20
12.91491041020092
 11
-57.60197485528343
 21
12.30937512169413
 72
     2
 10
-57.28625793220664
 20
12.30937512169413
 40
0.315716923076792
 50
180.0
 51
244.6259913216495
 73
     1
 72
     2
 10
-57.81230063029452
 20
11.20023352172632
 40
0.9118481501444634
 50
295.3740086781934
 51
424.6259913218226
 73
     0
 97
        8
330
1ED
330
14E
330
1EA
330
1EB
330
1C9
330
14D
330
1EC
330
1C8
 92
       16
 93
       12
 72
     2
 10
-59.86180661873834
 20
8.558632844131921
 40
0.3157169230756907
 50
180.0
 51
270.0
 73
     1
 72
     1
 10
-59.86180661873834
 20
8.242915921055214
 11
-58.38597335772872
 21
8.242915921055214
 72
     2
 10
-58.38597335772872
 20
8.558632844131921
 40
0.3157169230767067
 50
270.0
 51
360.0
 73
     1
 72
     1
 10
-58.07025643465212
 20
8.558632844131921
 11
-58.07025643465212
 21
10.08940377566353
 72
     2
 10
-58.38597335772872
 20
10.08940377566353
 40
0.3157169230766002
 50
0.0
 51
64.8055893514591
 73
     1
 72
     2
 10
-57.86338891015373
 20
11.20023352172632
 40
0.9118975235576114
 50
115.1944106485123
 51
244.8055893514717
 73
     0
 72
     2
 10
-58.38597335772872
 20
12.31106326778851
 40
0.3157169230761233
 50
295.1944106485409
 51
360.0
 73
     1
 72
     1
 10
-58.07025643465212
 20
12.31106326778851
 11
-58.07025643465212
 21
12.91508788684902
 72
     2
 10
-58.38597335772872
 20
12.91508788684902
 40
0.3157169230766002
 50
0.0
 51
90.0
 73
     1
 72
     1
 10
-58.38597335772872
 20
13.23080480992522
 11
-59.86180661873834
 21
13.23080480992522
 72
     2
 10
-59.86180661873834
 20
12.91508788684902
 40
0.3157169230761987
 50
90.0
 51
180.0
 73
     1
 72
     1
 10
-60.17752354181403
 20
12.91508788684902
 11
-60.17752354181403
 21
8.558632844131921
 97
       12
330
1D1
330
189
330
1D4
330
184
330
1E1
330
1E2
330
1D3
330
183
330
1D2
330
182
330
1E3
330
181
 75
     1
 76
     0
 52
45.0
 41
0.1
 77
     0
 78
     1
 53
45.0
 43
0.0
 44
0.0
 45
-0.0707106781186548
 46
0.0707106781186548
 79
     0
 98
        1
 10
0.0
 20
0.0
  0
HATCH
  5
238
330
71
100
AcDbEntity
  8
1
  6
Continuous
 62
     2
100
AcDbHatch
 10
0.0
 20
0.0
 30
0.0
210
0.0
220
0.0
230
1.0
  2
_USER
 70
     0
 71
     1
 91
        4
 92
        1
 93
        8
 72
     1
 10
-54.55814458938414
 20
13.51911575008182
 11
-54.55814458938414
 21
7.954604980881612
 72
     2
 10
-54.98238920476803
 20
7.954604980881612
 40
0.4242446153832873
 50
0.0
 51
90.0
 73
     0
 72
     1
 10
-54.98238920476803
 20
7.530360365498325
 11
-60.45570129548483
 21
7.530360365498325
 72
     2
 10
-60.45570129548483
 20
7.954604980881612
 40
0.4242446153828041
 50
90.0
 51
180.0
 73
     0
 72
     1
 10
-60.87994591086763
 20
7.954604980881612
 11
-60.87994591086763
 21
13.51911575008182
 72
     2
 10
-60.45570129548483
 20
13.51911575008182
 40
0.4242446153838006
 50
180.0
 51
270.0
 73
     0
 72
     1
 10
-60.45570129548483
 20
13.94336036546562
 11
-54.98238920476803
 21
13.94336036546562
 72
     2
 10
-54.98238920476803
 20
13.51911575008182
 40
0.4242446153838912
 50
270.0
 51
360.0
 73
     0
 97
        8
330
187
330
1D5
330
188
330
1E0
330
185
330
1D7
330
186
330
1D6
 92
       16
 93
        1
 72
     2
 10
-57.83611564496732
 20
11.20023352172632
 40
0.4709789327785145
 50
0.0
 51
360.0
 73
     1
 97
        1
330
1FB
 92
       16
 93
        8
 72
     2
 10
-57.28625793220664
 20
10.09109192175791
 40
0.3157169230765314
 50
115.3740086783506
 51
180.0
 73
     1
 72
     1
 10
-57.60197485528343
 20
10.09109192175791
 11
-57.60197485528343
 21
9.509240515062828
 72
     2
 10
-57.28625793220664
 20
9.509240515062828
 40
0.315716923076792
 50
180.0
 51
269.8110329574529
 73
     1
 72
     2
 10
-57.28064179689662
 20
11.21207546263182
 40
2.018561131933269
 50
269.8110329575857
 51
450.1889670424143
 73
     1
 72
     2
 10
-57.28625793220664
 20
12.91491041020092
 40
0.3157169230760746
 50
90.18896704254722
 51
180.0
 73
     1
 72
     1
 10
-57.60197485528343
 20
12.91491041020092
 11
-57.60197485528343
 21
12.30937512169413
 72
     2
 10
-57.28625793220664
 20
12.30937512169413
 40
0.315716923076792
 50
180.0
 51
244.6259913216495
 73
     1
 72
     2
 10
-57.81230063029452
 20
11.20023352172632
 40
0.9118481501444634
 50
295.3740086781934
 51
424.6259913218226
 73
     0
 97
        8
330
1ED
330
14E
330
1EA
330
1EB
330
1C9
330
14D
330
1EC
330
1C8
 92
       16
 93
       12
 72
     2
 10
-59.86180661873834
 20
8.558632844131921
 40
0.3157169230756907
 50
180.0
 51
270.0
 73
     1
 72
     1
 10
-59.86180661873834
 20
8.242915921055214
 11
-58.38597335772872
 21
8.242915921055214
 72
     2
 10
-58.38597335772872
 20
8.558632844131921
 40
0.3157169230767067
 50
270.0
 51
360.0
 73
     1
 72
     1
 10
-58.07025643465212
 20
8.558632844131921
 11
-58.07025643465212
 21
10.08940377566353
 72
     2
 10
-58.38597335772872
 20
10.08940377566353
 40
0.3157169230766002
 50
0.0
 51
64.8055893514591
 73
     1
 72
     2
 10
-57.86338891015373
 20
11.20023352172632
 40
0.9118975235576114
 50
115.1944106485123
 51
244.8055893514717
 73
     0
 72
     2
 10
-58.38597335772872
 20
12.31106326778851
 40
0.3157169230761233
 50
295.1944106485409
 51
360.0
 73
     1
 72
     1
 10
-58.07025643465212
 20
12.31106326778851
 11
-58.07025643465212
 21
12.91508788684902
 72
     2
 10
-58.38597335772872
 20
12.91508788684902
 40
0.3157169230766002
 50
0.0
 51
90.0
 73
     1
 72
     1
 10
-58.38597335772872
 20
13.23080480992522
 11
-59.86180661873834
 21
13.23080480992522
 72
     2
 10
-59.86180661873834
 20
12.91508788684902
 40
0.3157169230761987
 50
90.0
 51
180.0
 73
     1
 72
     1
 10
-60.17752354181403
 20
12.91508788684902
 11
-60.17752354181403
 21
8.558632844131921
 97
       12
330
1D1
330
189
330
1D4
330
184
330
1E1
330
1E2
330
1D3
330
183
330
1D2
330
182
330
1E3
330
181
 75
     1
 76
     0
 52
45.0
 41
0.1
 77
     0
 78
     1
 53
45.0
 43
0.0
 44
0.0
 45
-0.0707106781186548
 46
0.0707106781186548
 79
     0
 98
        1
 10
0.0
 20
0.0
  0
HATCH
  5
239
330
71
100
AcDbEntity
  8
1
  6
Continuous
 62
     2
100
AcDbHatch
 10
0.0
 20
0.0
 30
0.0
210
0.0
220
0.0
230
1.0
  2
_USER
 70
     0
 71
     1
 91
        1
 92
        1
 93
       18
 72
     1
 10
-32.96859668016313
 20
9.798904583185816
 11
-33.77969571763651
 21
9.798904583185816
 72
     1
 10
-33.77969571763651
 20
9.798904583185816
 11
-33.77969571763651
 21
7.530360365498325
 72
     1
 10
-33.77969571763651
 20
7.530360365498325
 11
-34.97248841980422
 21
7.530360365498325
 72
     1
 10
-34.97248841980422
 20
7.530360365498325
 11
-34.97248841980422
 21
9.798904583185816
 72
     1
 10
-34.97248841980422
 20
9.798904583185816
 11
-36.07612771937232
 21
9.798904583185816
 72
     2
 10
-36.07612771937232
 20
8.844381576359723
 40
0.9545230068260935
 50
90.0
 51
109.337143219432
 73
     1
 72
     2
 10
-36.22279771747603
 20
9.26233655674261
 40
0.5115800601944143
 50
109.3371432194853
 51
151.4785267424221
 73
     1
 72
     2
 10
-35.84544045939464
 20
9.05726512740361
 40
0.9410597353348862
 50
151.4785267423622
 51
208.5214732576697
 73
     1
 72
     2
 10
-36.22279771747603
 20
8.852193698065122
 40
0.5115800601960153
 50
208.521473257687
 51
246.6277221118449
 73
     1
 72
     2
 10
-36.06635768477293
 20
9.21418571677512
 40
0.9059297849852772
 50
246.6277221118187
 51
288.4480761180817
 73
     1
 72
     2
 10
-36.48452541843483
 20
10.46773149281171
 40
2.227384008972745
 50
288.4480761181333
 51
301.9309089499399
 73
     1
 72
     1
 10
-35.30647037641091
 20
8.577380773661929
 11
-35.30647037641091
 21
7.704863766858608
 72
     2
 10
-36.64239829352763
 20
12.36994607266001
 40
4.85259686349882
 50
74.02000874166129
 51
84.84185523036375
 73
     0
 72
     2
 10
-36.35354219879181
 20
9.170055489438425
 40
1.639695123940455
 50
84.84185523032401
 51
164.9381082228989
 73
     0
 72
     2
 10
-36.77267004225342
 20
9.05726512740361
 40
1.205656168393009
 50
164.9381082229042
 51
195.0618917770971
 73
     0
 72
     2
 10
-36.35354219879181
 20
8.94447476536871
 40
1.639695123940211
 50
195.061891777105
 51
270.0
 73
     0
 72
     1
 10
-36.35354219879181
 20
10.58416988930892
 11
-32.96859668016313
 21
10.58416988930941
 72
     1
 10
-32.96859668016313
 20
10.58416988930941
 11
-32.96859668016313
 21
9.798904583185816
 97
       18
330
150
330
1E6
330
1E7
330
1CF
330
1CE
330
1B4
330
1CD
330
1CC
330
1E8
330
1CB
330
1E9
330
1CA
330
1B5
330
14F
330
154
330
153
330
152
330
151
 75
     1
 76
     0
 52
45.0
 41
0.1
 77
     0
 78
     1
 53
45.0
 43
0.0
 44
0.0
 45
-0.0707106781186548
 46
0.0707106781186548
 79
     0
 98
        1
 10
0.0
 20
0.0
  0
HATCH
  5
23A
330
71
100
AcDbEntity
  8
1
  6
Continuous
 62
     2
100
AcDbHatch
 10
0.0
 20
0.0
 30
0.0
210
0.0
220
0.0
230
1.0
  2
_USER
 70
     0
 71
     1
 91
        1
 92
        1
 93
       18
 72
     1
 10
-32.96859668016313
 20
9.798904583185816
 11
-33.77969571763651
 21
9.798904583185816
 72
     1
 10
-33.77969571763651
 20
9.798904583185816
 11
-33.77969571763651
 21
7.530360365498325
 72
     1
 10
-33.77969571763651
 20
7.530360365498325
 11
-34.97248841980422
 21
7.530360365498325
 72
     1
 10
-34.97248841980422
 20
7.530360365498325
 11
-34.97248841980422
 21
9.798904583185816
 72
     1
 10
-34.97248841980422
 20
9.798904583185816
 11
-36.07612771937232
 21
9.798904583185816
 72
     2
 10
-36.07612771937232
 20
8.844381576359723
 40
0.9545230068260935
 50
90.0
 51
109.337143219432
 73
     1
 72
     2
 10
-36.22279771747603
 20
9.26233655674261
 40
0.5115800601944143
 50
109.3371432194853
 51
151.4785267424221
 73
     1
 72
     2
 10
-35.84544045939464
 20
9.05726512740361
 40
0.9410597353348862
 50
151.4785267423622
 51
208.5214732576697
 73
     1
 72
     2
 10
-36.22279771747603
 20
8.852193698065122
 40
0.5115800601960153
 50
208.521473257687
 51
246.6277221118449
 73
     1
 72
     2
 10
-36.06635768477293
 20
9.21418571677512
 40
0.9059297849852772
 50
246.6277221118187
 51
288.4480761180817
 73
     1
 72
     2
 10
-36.48452541843483
 20
10.46773149281171
 40
2.227384008972745
 50
288.4480761181333
 51
301.9309089499399
 73
     1
 72
     1
 10
-35.30647037641091
 20
8.577380773661929
 11
-35.30647037641091
 21
7.704863766858608
 72
     2
 10
-36.64239829352763
 20
12.36994607266001
 40
4.85259686349882
 50
74.02000874166129
 51
84.84185523036375
 73
     0
 72
     2
 10
-36.35354219879181
 20
9.170055489438425
 40
1.639695123940455
 50
84.84185523032401
 51
164.9381082228989
 73
     0
 72
     2
 10
-36.77267004225342
 20
9.05726512740361
 40
1.205656168393009
 50
164.9381082229042
 51
195.0618917770971
 73
     0
 72
     2
 10
-36.35354219879181
 20
8.94447476536871
 40
1.639695123940211
 50
195.061891777105
 51
270.0
 73
     0
 72
     1
 10
-36.35354219879181
 20
10.58416988930892
 11
-32.96859668016313
 21
10.58416988930941
 72
     1
 10
-32.96859668016313
 20
10.58416988930941
 11
-32.96859668016313
 21
9.798904583185816
 97
       18
330
150
330
1E6
330
1E7
330
1CF
330
1CE
330
1B4
330
1CD
330
1CC
330
1E8
330
1CB
330
1E9
330
1CA
330
1B5
330
14F
330
154
330
153
330
152
330
151
 75
     1
 76
     0
 52
45.0
 41
0.1
 77
     0
 78
     1
 53
45.0
 43
0.0
 44
0.0
 45
-0.0707106781186548
 46
0.0707106781186548
 79
     0
 98
        1
 10
0.0
 20
0.0
  0
HATCH
  5
23B
330
71
100
AcDbEntity
  8
1
  6
Continuous
 62
     2
100
AcDbHatch
 10
0.0
 20
0.0
 30
0.0
210
0.0
220
0.0
230
1.0
  2
_USER
 70
     0
 71
     1
 91
        1
 92
        1
 93
       14
 72
     2
 10
-52.45624367804473
 20
8.94447476536871
 40
1.639695123940505
 50
84.84185523036236
 51
164.9381082228864
 73
     1
 72
     2
 10
-52.87537152150753
 20
9.05726512740361
 40
1.205656168390937
 50
164.9381082228764
 51
195.0618917770949
 73
     1
 72
     2
 10
-52.45624367804473
 20
9.170055489438425
 40
1.63969512393938
 50
195.0618917770896
 51
275.1581447696395
 73
     1
 72
     2
 10
-52.74509977278063
 20
12.36994607266001
 40
4.852596863498134
 50
275.1581447696249
 51
285.9799912583529
 73
     1
 72
     1
 10
-51.40917185566283
 20
7.704863766859205
 11
-51.40917185566283
 21
8.577380773662412
 72
     2
 10
-52.58722689768771
 20
10.46773149281231
 40
2.22738400897274
 50
58.0690910500408
 51
71.55192388186742
 73
     0
 72
     2
 10
-52.16905916402692
 20
9.21418571677512
 40
0.905929784984922
 50
71.55192388184153
 51
113.3722778881294
 73
     0
 72
     2
 10
-52.32549919672894
 20
8.852193698065122
 40
0.5115800601948034
 50
113.3722778881733
 51
151.4785267423044
 73
     0
 72
     2
 10
-51.94814193864863
 20
9.05726512740361
 40
0.9410597353332545
 50
151.4785267422943
 51
208.5214732577331
 73
     0
 72
     2
 10
-52.32549919672894
 20
9.26233655674261
 40
0.5115800601948807
 50
208.5214732576956
 51
246.6277221118002
 73
     0
 72
     2
 10
-52.16905916402692
 20
8.900344538032016
 40
0.9059297849853228
 50
246.6277221118706
 51
288.4480761181465
 73
     0
 72
     2
 10
-52.58722689768771
 20
7.646798761995427
 40
2.227384008973478
 50
288.4480761181326
 51
301.9309089499593
 73
     0
 72
     1
 10
-51.40917185566283
 20
9.53714948114532
 11
-51.40917185566283
 21
10.40966648794861
 72
     2
 10
-52.74509977278063
 20
5.744584182147719
 40
4.852596863498064
 50
74.02000874164737
 51
84.84185523037515
 73
     1
 97
       14
330
1EE
330
1EF
330
1F0
330
1F1
330
1B6
330
1C7
330
1C6
330
1C5
330
1F2
330
1F3
330
1C4
330
1F4
330
1B7
330
1C3
 75
     1
 76
     0
 52
45.0
 41
0.1
 77
     0
 78
     1
 53
45.0
 43
0.0
 44
0.0
 45
-0.0707106781186548
 46
0.0707106781186548
 79
     0
 98
        1
 10
0.0
 20
0.0
  0
HATCH
  5
23C
330
71
100
AcDbEntity
  8
1
  6
Continuous
 62
     2
100
AcDbHatch
 10
0.0
 20
0.0
 30
0.0
210
0.0
220
0.0
230
1.0
  2
_USER
 70
     0
 71
     1
 91
        1
 92
        1
 93
       14
 72
     2
 10
-52.45624367804473
 20
8.94447476536871
 40
1.639695123940505
 50
84.84185523036236
 51
164.9381082228864
 73
     1
 72
     2
 10
-52.87537152150753
 20
9.05726512740361
 40
1.205656168390937
 50
164.9381082228764
 51
195.0618917770949
 73
     1
 72
     2
 10
-52.45624367804473
 20
9.170055489438425
 40
1.63969512393938
 50
195.0618917770896
 51
275.1581447696395
 73
     1
 72
     2
 10
-52.74509977278063
 20
12.36994607266001
 40
4.852596863498134
 50
275.1581447696249
 51
285.9799912583529
 73
     1
 72
     1
 10
-51.40917185566283
 20
7.704863766859205
 11
-51.40917185566283
 21
8.577380773662412
 72
     2
 10
-52.58722689768771
 20
10.46773149281231
 40
2.22738400897274
 50
58.0690910500408
 51
71.55192388186742
 73
     0
 72
     2
 10
-52.16905916402692
 20
9.21418571677512
 40
0.905929784984922
 50
71.55192388184153
 51
113.3722778881294
 73
     0
 72
     2
 10
-52.32549919672894
 20
8.852193698065122
 40
0.5115800601948034
 50
113.3722778881733
 51
151.4785267423044
 73
     0
 72
     2
 10
-51.94814193864863
 20
9.05726512740361
 40
0.9410597353332545
 50
151.4785267422943
 51
208.5214732577331
 73
     0
 72
     2
 10
-52.32549919672894
 20
9.26233655674261
 40
0.5115800601948807
 50
208.5214732576956
 51
246.6277221118002
 73
     0
 72
     2
 10
-52.16905916402692
 20
8.900344538032016
 40
0.9059297849853228
 50
246.6277221118706
 51
288.4480761181465
 73
     0
 72
     2
 10
-52.58722689768771
 20
7.646798761995427
 40
2.227384008973478
 50
288.4480761181326
 51
301.9309089499593
 73
     0
 72
     1
 10
-51.40917185566283
 20
9.53714948114532
 11
-51.40917185566283
 21
10.40966648794861
 72
     2
 10
-52.74509977278063
 20
5.744584182147719
 40
4.852596863498064
 50
74.02000874164737
 51
84.84185523037515
 73
     1
 97
       14
330
1EE
330
1EF
330
1F0
330
1F1
330
1B6
330
1C7
330
1C6
330
1C5
330
1F2
330
1F3
330
1C4
330
1F4
330
1B7
330
1C3
 75
     1
 76
     0
 52
45.0
 41
0.1
 77
     0
 78
     1
 53
45.0
 43
0.0
 44
0.0
 45
-0.0707106781186548
 46
0.0707106781186548
 79
     0
 98
        1
 10
0.0
 20
0.0
  0
ENDBLK
  5
73
330
71
100
AcDbEntity
  8
0
100
AcDbBlockEnd
  0
BLOCK
  5
75
330
74
100
AcDbEntity
  8
0
100
AcDbBlockBegin
  2
_punkt
 70
     0
 10
64.42820372931978
 20
0.23686036548202
 30
0.0
  3
_punkt
  1

  0
LINE
  5
23D
330
74
100
AcDbEntity
  8
1
  6
Continuous
 62
     2
100
AcDbLine
 10
64.42820372931978
 20
0.23686036548202
 30
0.0
 11
69.42820372931877
 21
0.23686036548202
 31
0.0
  0
LINE
  5
23E
330
74
100
AcDbEntity
  8
1
  6
Continuous
 62
     2
100
AcDbLine
 10
64.42820372931978
 20
0.23686036548202
 30
0.0
 11
64.42820372931978
 21
-4.7631396345181
 31
0.0
  0
ENDBLK
  5
76
330
74
100
AcDbEntity
  8
0
100
AcDbBlockEnd
  0
BLOCK
  5
7A
330
77
100
AcDbEntity
  8
0
100
AcDbBlockBegin
  2
A4I_CS
 70
     0
 10
64.42820372931978
 20
-4.7631396345181
 30
0.0
  3
A4I_CS
  1

  0
INSERT
  5
78
330
77
100
AcDbEntity
  8
1
100
AcDbBlockReference
  2
_rahmen
 10
64.42820372931978
 20
-4.7631396345181
 30
0.0
  0
INSERT
  5
79
330
77
100
AcDbEntity
  8
1
100
AcDbBlockReference
  2
_punkt
 10
64.42820372931978
 20
0.23686036548202
 30
0.0
  0
ENDBLK
  5
7B
330
77
100
AcDbEntity
  8
0
100
AcDbBlockEnd
  0
BLOCK
  5
84
330
7C
100
AcDbEntity
  8
0
100
AcDbBlockBegin
  2
1
 70
     0
 10
0.0
 20
0.0
 30
0.0
  3
1
  1

  0
INSERT
  5
7D
330
7C
100
AcDbEntity
  8
0
100
AcDbBlockReference
  2
AllgSicht1
 10
8.99999999999628
 20
71.0
 30
0.0
  0
INSERT
  5
7E
330
7C
100
AcDbEntity
  8
0
100
AcDbBlockReference
  2
Drfsicht1
 10
-118.9999989950218
 20
93.99999970197044
 30
0.0
  0
INSERT
  5
7F
330
7C
100
AcDbEntity
  8
0
100
AcDbBlockReference
  2
Rckans1
 10
-24.99999994869206
 20
136.0000000000004
 30
0.0
  0
INSERT
  5
80
330
7C
100
AcDbEntity
  8
0
100
AcDbBlockReference
  2
SA_Links1
 10
-67.99999947184699
 20
136.0000000000004
 30
0.0
  0
INSERT
  5
81
330
7C
100
AcDbEntity
  8
0
100
AcDbBlockReference
  2
SA_Rechts1
 10
-163.9999985181916
 20
136.0
 30
0.0
  0
INSERT
  5
82
330
7C
100
AcDbEntity
  8
0
100
AcDbBlockReference
  2
Vordans1
 10
-118.9999989950218
 20
136.0
 30
0.0
  0
INSERT
  5
83
330
7C
100
AcDbEntity
  8
0
100
AcDbBlockReference
  2
A4I_CS
 10
64.42820372931978
 20
-4.7631396345181
 30
0.0
  0
ENDBLK
  5
85
330
7C
100
AcDbEntity
  8
0
100
AcDbBlockEnd
  0
BLOCK
  5
BA
330
B1
100
AcDbEntity
  8
0
100
AcDbBlockBegin
  2
*D17
 70
     1
 10
0.0
 20
0.0
 30
0.0
  3
*D17
  1

  0
LINE
  5
B2
330
B1
100
AcDbEntity
  8
1
  6
Continuous
 62
     2
100
AcDbLine
 10
-141.8335557697705
 20
102.9999997019641
 30
0.0
 11
-141.8335557697705
 21
95.99999970196413
 31
0.0
  0
LINE
  5
B3
330
B1
100
AcDbEntity
  8
1
  6
Continuous
 62
     2
100
AcDbLine
 10
-141.8335557697705
 20
95.99999970196413
 30
0.0
 11
-141.8335557697705
 21
91.99999970196413
 31
0.0
  0
LINE
  5
B4
330
B1
100
AcDbEntity
  8
1
  6
Continuous
 62
     2
100
AcDbLine
 10
-141.8335557697705
 20
91.99999970196413
 30
0.0
 11
-141.8335557697705
 21
84.99999970196413
 31
0.0
  0
LINE
  5
B5
330
B1
100
AcDbEntity
  8
1
  6
Continuous
 62
     2
100
AcDbLine
 10
-131.8335557697705
 20
95.99999970196413
 30
0.0
 11
-143.3335557697705
 21
95.99999970196413
 31
0.0
  0
LINE
  5
B6
330
B1
100
AcDbEntity
  8
1
  6
Continuous
 62
     2
100
AcDbLine
 10
-131.8335557697701
 20
91.99999970196413
 30
0.0
 11
-143.3335557697705
 21
91.99999970196413
 31
0.0
  0
SOLID
  5
B7
330
B1
100
AcDbEntity
  8
1
 62
     2
100
AcDbTrace
 10
-142.2943395113264
 20
99.49999970196413
 30
0.0
 11
-141.3727720282146
 21
99.49999970196413
 31
0.0
 12
-141.8335557697705
 22
95.99999970196413
 32
0.0
 13
-141.8335557697705
 23
95.99999970196413
 33
0.0
  0
SOLID
  5
B8
330
B1
100
AcDbEntity
  8
1
 62
     2
100
AcDbTrace
 10
-141.3727720282146
 20
88.49999970196413
 30
0.0
 11
-142.2943395113264
 21
88.49999970196413
 31
0.0
 12
-141.8335557697705
 22
91.99999970196413
 32
0.0
 13
-141.8335557697705
 23
91.99999970196413
 33
0.0
  0
MTEXT
  5
B9
330
B1
100
AcDbEntity
  8
1
 62
     3
100
AcDbMText
 10
-143.3335557697705
 20
93.39065601112799
 30
0.0
 40
3.5
 41
0.0
 71
     7
 72
     1
  1
4
  7
CONVERTER_11
 11
0.0
 21
1.0
 31
0.0
 73
     1
 44
0.60024009603842
  0
ENDBLK
  5
BB
330
B1
100
AcDbEntity
  8
0
100
AcDbBlockEnd
  0
BLOCK
  5
F7
330
F0
100
AcDbEntity
  8
0
100
AcDbBlockBegin
  2
*D18
 70
     1
 10
0.0
 20
0.0
 30
0.0
  3
*D18
  1

  0
LINE
  5
F1
330
F0
100
AcDbEntity
  8
1
  6
Continuous
 62
     2
100
AcDbLine
 10
-134.9999989437208
 20
113.782527168384
 30
0.0
 11
-102.9999989437212
 21
113.782527168384
 31
0.0
  0
LINE
  5
F2
330
F0
100
AcDbEntity
  8
1
  6
Continuous
 62
     2
100
AcDbLine
 10
-134.9999989437208
 20
132.3000003114945
 30
0.0
 11
-134.9999989437208
 21
111.782527168384
 31
0.0
  0
LINE
  5
F3
330
F0
100
AcDbEntity
  8
1
  6
Continuous
 62
     2
100
AcDbLine
 10
-102.9999989437212
 20
132.3000003114727
 30
0.0
 11
-102.9999989437212
 21
111.782527168384
 31
0.0
  0
SOLID
  5
F4
330
F0
100
AcDbEntity
  8
1
 62
     2
100
AcDbTrace
 10
-131.4999989437208
 20
114.2433109099399
 30
0.0
 11
-131.4999989437208
 21
113.3217434268281
 31
0.0
 12
-134.9999989437208
 22
113.782527168384
 32
0.0
 13
-134.9999989437208
 23
113.782527168384
 33
0.0
  0
SOLID
  5
F5
330
F0
100
AcDbEntity
  8
1
 62
     2
100
AcDbTrace
 10
-106.4999989437212
 20
113.3217434268281
 30
0.0
 11
-106.4999989437212
 21
114.2433109099399
 31
0.0
 12
-102.9999989437212
 22
113.782527168384
 32
0.0
 13
-102.9999989437212
 23
113.782527168384
 33
0.0
  0
MTEXT
  5
F6
330
F0
100
AcDbEntity
  8
1
 62
     3
100
AcDbMText
 10
-120.8585269040511
 20
115.782527168384
 30
0.0
 40
3.5
 41
0.0
 71
     7
 72
     1
  1
32
  7
CONVERTER_11
 11
0.9999999999970619
 21
2.424068405545306E-6
 31
0.0
 73
     1
 44
0.60024009603842
  0
ENDBLK
  5
F8
330
F0
100
AcDbEntity
  8
0
100
AcDbBlockEnd
  0
BLOCK
  5
102
330
FB
100
AcDbEntity
  8
0
100
AcDbBlockBegin
  2
*D19
 70
     1
 10
0.0
 20
0.0
 30
0.0
  3
*D19
  1

  0
LINE
  5
FC
330
FB
100
AcDbEntity
  8
1
  6
Continuous
 62
     2
100
AcDbLine
 10
-146.1367152439738
 20
126.0000003114672
 30
0.0
 11
-146.1367152439738
 21
146.0000003114745
 31
0.0
  0
LINE
  5
FD
330
FB
100
AcDbEntity
  8
1
  6
Continuous
 62
     2
100
AcDbLine
 10
-104.4544685478214
 20
126.0000003114672
 30
0.0
 11
-148.1367152439738
 21
126.0000003114672
 31
0.0
  0
LINE
  5
FE
330
FB
100
AcDbEntity
  8
1
  6
Continuous
 62
     2
100
AcDbLine
 10
-115.0999989437143
 20
146.0000003114745
 30
0.0
 11
-148.1367152439738
 21
146.0000003114745
 31
0.0
  0
SOLID
  5
FF
330
FB
100
AcDbEntity
  8
1
 62
     2
100
AcDbTrace
 10
-146.5974989855297
 20
129.5000003114672
 30
0.0
 11
-145.6759315024179
 21
129.5000003114672
 31
0.0
 12
-146.1367152439738
 22
126.0000003114672
 32
0.0
 13
-146.1367152439738
 23
126.0000003114672
 33
0.0
  0
SOLID
  5
100
330
FB
100
AcDbEntity
  8
1
 62
     2
100
AcDbTrace
 10
-145.6759315024179
 20
142.5000003114745
 30
0.0
 11
-146.5974989855297
 21
142.5000003114745
 31
0.0
 12
-146.1367152439738
 22
146.0000003114745
 32
0.0
 13
-146.1367152439738
 23
146.0000003114745
 33
0.0
  0
MTEXT
  5
101
330
FB
100
AcDbEntity
  8
1
 62
     3
100
AcDbMText
 10
-148.1367152439738
 20
133.0184109031657
 30
0.0
 40
3.5
 41
0.0
 71
     7
 72
     1
  1
20
  7
CONVERTER_11
 11
0.0
 21
1.0
 31
0.0
 73
     1
 44
0.60024009603842
  0
ENDBLK
  5
103
330
FB
100
AcDbEntity
  8
0
100
AcDbBlockEnd
  0
ENDSEC
  0
SECTION
  2
ENTITIES
  0
INSERT
  5
86
330
1F
100
AcDbEntity
  8
1
100
AcDbBlockReference
  2
1
 10
0.0
 20
0.0
 30
0.0
  0
ENDSEC
  0
SECTION
  2
OBJECTS
  0
DICTIONARY
  5
C
330
0
100
AcDbDictionary
281
     1
  3
ACAD_GROUP
350
D
  3
ACAD_LAYOUT
350
1A
  3
ACAD_MATERIAL
350
3B
  3
ACAD_MLEADERSTYLE
350
266
  3
ACAD_MLINESTYLE
350
17
  3
ACAD_PLOTSETTINGS
350
19
  3
ACAD_PLOTSTYLENAME
350
E
  3
ACAD_TABLESTYLE
350
265
  3
ACAD_VISUALSTYLE
350
2A
  0
DICTIONARY
  5
D
102
{ACAD_REACTORS
330
C
102
}
330
C
100
AcDbDictionary
281
     1
  0
DICTIONARY
  5
1A
102
{ACAD_REACTORS
330
C
102
}
330
C
100
AcDbDictionary
281
     1
  3
Layout1
350
1E
  3
Layout2
350
26
  3
Model
350
22
  0
DICTIONARY
  5
3B
102
{ACAD_REACTORS
330
C
102
}
330
C
100
AcDbDictionary
281
     1
  3
ByBlock
350
3D
  3
ByLayer
350
3C
  3
Global
350
3E
  0
DICTIONARY
  5
266
102
{ACAD_REACTORS
330
C
102
}
330
C
100
AcDbDictionary
281
     1
  0
DICTIONARY
  5
17
102
{ACAD_REACTORS
330
C
102
}
330
C
100
AcDbDictionary
281
     1
  3
Standard
350
18
  0
DICTIONARY
  5
19
102
{ACAD_REACTORS
330
C
102
}
330
C
100
AcDbDictionary
281
     1
  0
ACDBDICTIONARYWDFLT
  5
E
102
{ACAD_REACTORS
330
C
102
}
330
C
100
AcDbDictionary
281
     1
  3
Normal
350
F
100
AcDbDictionaryWithDefault
340
F
  0
DICTIONARY
  5
265
102
{ACAD_REACTORS
330
C
102
}
330
C
100
AcDbDictionary
281
     1
  0
DICTIONARY
  5
2A
102
{ACAD_REACTORS
330
C
102
}
330
C
100
AcDbDictionary
281
     1
  3
2dWireframe
350
2F
  3
3D Hidden
350
31
  3
3dWireframe
350
30
  3
Basic
350
32
  3
Brighten
350
36
  3
ColorChange
350
3A
  3
Conceptual
350
34
  3
Dim
350
35
  3
Facepattern
350
39
  3
Flat
350
2B
  3
FlatWithEdges
350
2C
  3
Gouraud
350
2D
  3
GouraudWithEdges
350
2E
  3
Linepattern
350
38
  3
Realistic
350
33
  3
Thicken
350
37
  0
LAYOUT
  5
1E
102
{ACAD_REACTORS
330
1A
102
}
330
1A
100
AcDbPlotSettings
  1

  2
none_device
  4

  6

 40
0.0
 41
0.0
 42
0.0
 43
0.0
 44
0.0
 45
0.0
 46
0.0
 47
0.0
 48
0.0
 49
0.0
140
0.0
141
0.0
142
1.0
143
1.0
 70
   688
 72
     0
 73
     0
 74
     5
  7

 75
    16
 76
     0
 77
     2
 78
   300
147
1.0
148
0.0
149
0.0
100
AcDbLayout
  1
Layout1
 70
     1
 71
     1
 10
0.0
 20
0.0
 11
12.0
 21
9.0
 12
0.0
 22
0.0
 32
0.0
 14
1.00000000000000E+20
 24
1.00000000000000E+20
 34
1.00000000000000E+20
 15
-1.00000000000000E+20
 25
-1.00000000000000E+20
 35
-1.00000000000000E+20
146
0.0
 13
0.0
 23
0.0
 33
0.0
 16
1.0
 26
0.0
 36
0.0
 17
0.0
 27
1.0
 37
0.0
 76
     0
330
1B
  0
LAYOUT
  5
26
102
{ACAD_REACTORS
330
1A
102
}
330
1A
100
AcDbPlotSettings
  1

  2
none_device
  4

  6

 40
0.0
 41
0.0
 42
0.0
 43
0.0
 44
0.0
 45
0.0
 46
0.0
 47
0.0
 48
0.0
 49
0.0
140
0.0
141
0.0
142
1.0
143
1.0
 70
   688
 72
     0
 73
     0
 74
     5
  7

 75
    16
 76
     0
 77
     2
 78
   300
147
1.0
148
0.0
149
0.0
100
AcDbLayout
  1
Layout2
 70
     1
 71
     2
 10
0.0
 20
0.0
 11
0.0
 21
0.0
 12
0.0
 22
0.0
 32
0.0
 14
0.0
 24
0.0
 34
0.0
 15
0.0
 25
0.0
 35
0.0
146
0.0
 13
0.0
 23
0.0
 33
0.0
 16
1.0
 26
0.0
 36
0.0
 17
0.0
 27
1.0
 37
0.0
 76
     0
330
23
  0
LAYOUT
  5
22
102
{ACAD_REACTORS
330
1A
102
}
330
1A
100
AcDbPlotSettings
  1

  2
none_device
  4

  6

 40
0.0
 41
0.0
 42
0.0
 43
0.0
 44
0.0
 45
0.0
 46
0.0
 47
0.0
 48
0.0
 49
0.0
140
0.0
141
0.0
142
1.0
143
1.0
 70
  1712
 72
     0
 73
     0
 74
     0
  7

 75
     0
 76
     0
 77
     2
 78
   300
147
1.0
148
0.0
149
0.0
100
AcDbLayout
  1
Model
 70
     1
 71
     0
 10
0.0
 20
0.0
 11
12.0
 21
9.0
 12
0.0
 22
0.0
 32
0.0
 14
-227.5717962706793
 24
-4.7631396345181
 34
0.0
 15
69.42820372931877
 25
205.236860365482
 35
0.0
146
0.0
 13
0.0
 23
0.0
 33
0.0
 16
1.0
 26
0.0
 36
0.0
 17
0.0
 27
1.0
 37
0.0
 76
     0
330
1F
331
29
  0
MATERIAL
  5
3D
102
{ACAD_REACTORS
330
3B
102
}
102
{ACAD_XDICTIONARY
360
261
102
}
330
3B
100
AcDbMaterial
  1
ByBlock
  0
MATERIAL
  5
3C
102
{ACAD_REACTORS
330
3B
102
}
102
{ACAD_XDICTIONARY
360
25F
102
}
330
3B
100
AcDbMaterial
  1
ByLayer
  0
MATERIAL
  5
3E
102
{ACAD_REACTORS
330
3B
102
}
102
{ACAD_XDICTIONARY
360
263
102
}
330
3B
100
AcDbMaterial
  1
Global
  0
MLINESTYLE
  5
18
102
{ACAD_REACTORS
330
17
102
}
330
17
100
AcDbMlineStyle
  2
Standard
 70
     0
  3

 62
   256
 51
90.0
 52
90.0
 71
     2
 49
0.5
 62
   256
  6
BYLAYER
 49
-0.5
 62
   256
  6
BYLAYER
  0
ACDBPLACEHOLDER
  5
F
102
{ACAD_REACTORS
330
E
102
}
330
E
  0
VISUALSTYLE
  5
2F
102
{ACAD_REACTORS
330
2A
102
}
102
{ACAD_XDICTIONARY
360
247
102
}
330
2A
100
AcDbVisualStyle
  2
2dWireframe
 70
     4
 71
     0
 72
     2
 73
     0
 90
        0
 40
-0.6
 41
-30.0
 62
     5
 63
     7
421
 16777215
 74
     1
 91
        4
 64
     7
 65
   257
 75
     1
175
     1
 42
1.0
 92
        0
 66
   257
 43
1.0
 76
     1
 77
     6
 78
     2
 67
     7
 79
     5
170
     0
171
     0
290
     0
174
     0
 93
        1
 44
0.0
173
     0
291
     0
 45
0.0
1001
ACAD
1000
AcDbSavedByObjectVersion
1070
     0
  0
VISUALSTYLE
  5
31
102
{ACAD_REACTORS
330
2A
102
}
102
{ACAD_XDICTIONARY
360
24B
102
}
330
2A
100
AcDbVisualStyle
  2
3D Hidden
 70
     6
 71
     1
 72
     2
 73
     2
 90
        0
 40
-0.6
 41
-30.0
 62
     5
 63
     7
421
 16777215
 74
     2
 91
        2
 64
     7
 65
   257
 75
     2
175
     1
 42
40.0
 92
        0
 66
   257
 43
1.0
 76
     1
 77
     6
 78
     2
 67
     7
 79
     3
170
     0
171
     0
290
     0
174
     0
 93
        1
 44
0.0
173
     0
291
     0
 45
0.0
1001
ACAD
1000
AcDbSavedByObjectVersion
1070
     0
  0
VISUALSTYLE
  5
30
102
{ACAD_REACTORS
330
2A
102
}
102
{ACAD_XDICTIONARY
360
249
102
}
330
2A
100
AcDbVisualStyle
  2
3dWireframe
 70
     5
 71
     0
 72
     2
 73
     0
 90
        0
 40
-0.6
 41
-30.0
 62
     5
 63
     7
421
 16777215
 74
     1
 91
        4
 64
     7
 65
   257
 75
     1
175
     1
 42
1.0
 92
        0
 66
   257
 43
1.0
 76
     1
 77
     6
 78
     2
 67
     7
 79
     5
170
     0
171
     0
290
     0
174
     0
 93
        1
 44
0.0
173
     0
291
     0
 45
0.0
1001
ACAD
1000
AcDbSavedByObjectVersion
1070
     0
  0
VISUALSTYLE
  5
32
102
{ACAD_REACTORS
330
2A
102
}
102
{ACAD_XDICTIONARY
360
24D
102
}
330
2A
100
AcDbVisualStyle
  2
Basic
 70
     7
 71
     1
 72
     0
 73
     1
 90
        0
 40
-0.6
 41
-30.0
 62
     5
 63
     7
421
 16777215
 74
     0
 91
        4
 64
     7
 65
   257
 75
     1
175
     1
 42
1.0
 92
        8
 66
     7
 43
1.0
 76
     1
 77
     6
 78
     2
 67
     7
 79
     5
170
     0
171
     0
290
     0
174
     0
 93
        1
 44
0.0
173
     0
291
     1
 45
0.0
1001
ACAD
1000
AcDbSavedByObjectVersion
1070
     0
  0
VISUALSTYLE
  5
36
102
{ACAD_REACTORS
330
2A
102
}
102
{ACAD_XDICTIONARY
360
255
102
}
330
2A
100
AcDbVisualStyle
  2
Brighten
 70
    12
 71
     2
 72
     2
 73
     0
 90
        0
 40
-0.6
 41
-30.0
 62
     5
 63
     7
421
 16777215
 74
     1
 91
        4
 64
     7
 65
   257
 75
     1
175
     1
 42
1.0
 92
        8
 66
     7
 43
1.0
 76
     1
 77
     6
 78
     2
 67
     7
 79
     5
170
     0
171
     0
290
     0
174
     0
 93
        1
 44
50.0
173
     0
291
     1
 45
0.0
1001
ACAD
1000
AcDbSavedByObjectVersion
1070
     0
  0
VISUALSTYLE
  5
3A
102
{ACAD_REACTORS
330
2A
102
}
102
{ACAD_XDICTIONARY
360
25D
102
}
330
2A
100
AcDbVisualStyle
  2
ColorChange
 70
    16
 71
     2
 72
     2
 73
     3
 90
        0
 40
-0.6
 41
-30.0
 62
     5
 63
     8
421
  8421504
 74
     1
 91
        4
 64
     7
 65
   257
 75
     1
175
     1
 42
1.0
 92
        8
 66
     8
424
  8421504
 43
1.0
 76
     1
 77
     6
 78
     2
 67
     7
 79
     5
170
     0
171
     0
290
     0
174
     0
 93
        1
 44
0.0
173
     0
291
     1
 45
0.0
1001
ACAD
1000
AcDbSavedByObjectVersion
1070
     0
  0
VISUALSTYLE
  5
34
102
{ACAD_REACTORS
330
2A
102
}
102
{ACAD_XDICTIONARY
360
251
102
}
330
2A
100
AcDbVisualStyle
  2
Conceptual
 70
     9
 71
     3
 72
     2
 73
     0
 90
        0
 40
-0.6
 41
-30.0
 62
     5
 63
     7
421
 16777215
 74
     2
 91
        2
 64
     7
 65
   257
 75
     1
175
     1
 42
40.0
 92
        8
 66
     7
 43
1.0
 76
     1
 77
     6
 78
     2
 67
     7
 79
     3
170
     0
171
     0
290
     0
174
     0
 93
        1
 44
0.0
173
     0
291
     0
 45
0.0
1001
ACAD
1000
AcDbSavedByObjectVersion
1070
     0
  0
VISUALSTYLE
  5
35
102
{ACAD_REACTORS
330
2A
102
}
102
{ACAD_XDICTIONARY
360
253
102
}
330
2A
100
AcDbVisualStyle
  2
Dim
 70
    11
 71
     2
 72
     2
 73
     0
 90
        0
 40
-0.6
 41
-30.0
 62
     5
 63
     7
421
 16777215
 74
     1
 91
        4
 64
     7
 65
   257
 75
     1
175
     1
 42
1.0
 92
        8
 66
     7
 43
1.0
 76
     1
 77
     6
 78
     2
 67
     7
 79
     5
170
     0
171
     0
290
     0
174
     0
 93
        1
 44
-50.0
173
     0
291
     1
 45
0.0
1001
ACAD
1000
AcDbSavedByObjectVersion
1070
     0
  0
VISUALSTYLE
  5
39
102
{ACAD_REACTORS
330
2A
102
}
102
{ACAD_XDICTIONARY
360
25B
102
}
330
2A
100
AcDbVisualStyle
  2
Facepattern
 70
    15
 71
     2
 72
     2
 73
     0
 90
        0
 40
-0.6
 41
-30.0
 62
     5
 63
     7
421
 16777215
 74
     1
 91
        4
 64
     7
 65
   257
 75
     1
175
     1
 42
1.0
 92
        8
 66
     7
 43
1.0
 76
     1
 77
     6
 78
     2
 67
     7
 79
     5
170
     0
171
     0
290
     0
174
     0
 93
        1
 44
0.0
173
     0
291
     1
 45
0.0
1001
ACAD
1000
AcDbSavedByObjectVersion
1070
     0
  0
VISUALSTYLE
  5
2B
102
{ACAD_REACTORS
330
2A
102
}
102
{ACAD_XDICTIONARY
360
23F
102
}
330
2A
100
AcDbVisualStyle
  2
Flat
 70
     0
 71
     2
 72
     1
 73
     1
 90
        2
 40
-0.6
 41
30.0
 62
     5
 63
     7
421
 16777215
 74
     0
 91
        4
 64
     7
 65
   257
 75
     1
175
     1
 42
1.0
 92
        8
 66
     7
 43
1.0
 76
     1
 77
     6
 78
     2
 67
     7
 79
     5
170
     0
171
     0
290
     0
174
     0
 93
       13
 44
0.0
173
     0
291
     1
 45
0.0
1001
ACAD
1000
AcDbSavedByObjectVersion
1070
     0
  0
VISUALSTYLE
  5
2C
102
{ACAD_REACTORS
330
2A
102
}
102
{ACAD_XDICTIONARY
360
241
102
}
330
2A
100
AcDbVisualStyle
  2
FlatWithEdges
 70
     1
 71
     2
 72
     1
 73
     1
 90
        2
 40
-0.6
 41
30.0
 62
     5
 63
     7
421
 16777215
 74
     1
 91
        4
 64
     7
 65
   257
 75
     1
175
     1
 42
1.0
 92
        0
 66
   257
 43
1.0
 76
     1
 77
     6
 78
     2
 67
     7
 79
     5
170
     0
171
     0
290
     0
174
     0
 93
       13
 44
0.0
173
     0
291
     1
 45
0.0
1001
ACAD
1000
AcDbSavedByObjectVersion
1070
     0
  0
VISUALSTYLE
  5
2D
102
{ACAD_REACTORS
330
2A
102
}
102
{ACAD_XDICTIONARY
360
243
102
}
330
2A
100
AcDbVisualStyle
  2
Gouraud
 70
     2
 71
     2
 72
     2
 73
     1
 90
        2
 40
-0.6
 41
30.0
 62
     5
 63
     7
421
 16777215
 74
     0
 91
        4
 64
     7
 65
   257
 75
     1
175
     1
 42
1.0
 92
        0
 66
     7
 43
1.0
 76
     1
 77
     6
 78
     2
 67
     7
 79
     5
170
     0
171
     0
290
     0
174
     0
 93
       13
 44
0.0
173
     0
291
     1
 45
0.0
1001
ACAD
1000
AcDbSavedByObjectVersion
1070
     0
  0
VISUALSTYLE
  5
2E
102
{ACAD_REACTORS
330
2A
102
}
102
{ACAD_XDICTIONARY
360
245
102
}
330
2A
100
AcDbVisualStyle
  2
GouraudWithEdges
 70
     3
 71
     2
 72
     2
 73
     1
 90
        2
 40
-0.6
 41
30.0
 62
     5
 63
     7
421
 16777215
 74
     1
 91
        4
 64
     7
 65
   257
 75
     1
175
     1
 42
1.0
 92
        0
 66
   257
 43
1.0
 76
     1
 77
     6
 78
     2
 67
     7
 79
     5
170
     0
171
     0
290
     0
174
     0
 93
       13
 44
0.0
173
     0
291
     1
 45
0.0
1001
ACAD
1000
AcDbSavedByObjectVersion
1070
     0
  0
VISUALSTYLE
  5
38
102
{ACAD_REACTORS
330
2A
102
}
102
{ACAD_XDICTIONARY
360
259
102
}
330
2A
100
AcDbVisualStyle
  2
Linepattern
 70
    14
 71
     2
 72
     2
 73
     0
 90
        0
 40
-0.6
 41
-30.0
 62
     5
 63
     7
421
 16777215
 74
     1
 91
        4
 64
     7
 65
   257
 75
     7
175
     7
 42
1.0
 92
        8
 66
     7
 43
1.0
 76
     1
 77
     6
 78
     2
 67
     7
 79
     5
170
     0
171
     0
290
     0
174
     0
 93
        1
 44
0.0
173
     0
291
     1
 45
0.0
1001
ACAD
1000
AcDbSavedByObjectVersion
1070
     0
  0
VISUALSTYLE
  5
33
102
{ACAD_REACTORS
330
2A
102
}
102
{ACAD_XDICTIONARY
360
24F
102
}
330
2A
100
AcDbVisualStyle
  2
Realistic
 70
     8
 71
     2
 72
     2
 73
     0
 90
        0
 40
-0.6
 41
-30.0
 62
     5
 63
     7
421
 16777215
 74
     1
 91
        0
 64
     7
 65
   257
 75
     1
175
     1
 42
1.0
 92
        8
 66
     8
424
  7895160
 43
1.0
 76
     1
 77
     6
 78
     2
 67
     7
 79
     5
170
     0
171
     0
290
     0
174
     0
 93
       13
 44
0.0
173
     0
291
     0
 45
0.0
1001
ACAD
1000
AcDbSavedByObjectVersion
1070
     0
  0
VISUALSTYLE
  5
37
102
{ACAD_REACTORS
330
2A
102
}
102
{ACAD_XDICTIONARY
360
257
102
}
330
2A
100
AcDbVisualStyle
  2
Thicken
 70
    13
 71
     2
 72
     2
 73
     0
 90
        0
 40
-0.6
 41
-30.0
 62
     5
 63
     7
421
 16777215
 74
     1
 91
        4
 64
     7
 65
   257
 75
     1
175
     1
 42
1.0
 92
       12
 66
     7
 43
1.0
 76
     1
 77
     6
 78
     2
 67
     7
 79
     5
170
     0
171
     0
290
     0
174
     0
 93
        1
 44
0.0
173
     0
291
     1
 45
0.0
1001
ACAD
1000
AcDbSavedByObjectVersion
1070
     0
  0
DICTIONARY
  5
261
330
3D
100
AcDbDictionary
280
     1
281
     1
  3
ACAD_XREC_ROUNDTRIP
360
262
  0
DICTIONARY
  5
25F
330
3C
100
AcDbDictionary
280
     1
281
     1
  3
ACAD_XREC_ROUNDTRIP
360
260
  0
DICTIONARY
  5
263
330
3E
100
AcDbDictionary
280
     1
281
     1
  3
ACAD_XREC_ROUNDTRIP
360
264
  0
DICTIONARY
  5
247
330
2F
100
AcDbDictionary
280
     1
281
     1
  3
ACAD_XREC_ROUNDTRIP
360
248
  0
DICTIONARY
  5
24B
330
31
100
AcDbDictionary
280
     1
281
     1
  3
ACAD_XREC_ROUNDTRIP
360
24C
  0
DICTIONARY
  5
249
330
30
100
AcDbDictionary
280
     1
281
     1
  3
ACAD_XREC_ROUNDTRIP
360
24A
  0
DICTIONARY
  5
24D
330
32
100
AcDbDictionary
280
     1
281
     1
  3
ACAD_XREC_ROUNDTRIP
360
24E
  0
DICTIONARY
  5
255
330
36
100
AcDbDictionary
280
     1
281
     1
  3
ACAD_XREC_ROUNDTRIP
360
256
  0
DICTIONARY
  5
25D
330
3A
100
AcDbDictionary
280
     1
281
     1
  3
ACAD_XREC_ROUNDTRIP
360
25E
  0
DICTIONARY
  5
251
330
34
100
AcDbDictionary
280
     1
281
     1
  3
ACAD_XREC_ROUNDTRIP
360
252
  0
DICTIONARY
  5
253
330
35
100
AcDbDictionary
280
     1
281
     1
  3
ACAD_XREC_ROUNDTRIP
360
254
  0
DICTIONARY
  5
25B
330
39
100
AcDbDictionary
280
     1
281
     1
  3
ACAD_XREC_ROUNDTRIP
360
25C
  0
DICTIONARY
  5
23F
330
2B
100
AcDbDictionary
280
     1
281
     1
  3
ACAD_XREC_ROUNDTRIP
360
240
  0
DICTIONARY
  5
241
330
2C
100
AcDbDictionary
280
     1
281
     1
  3
ACAD_XREC_ROUNDTRIP
360
242
  0
DICTIONARY
  5
243
330
2D
100
AcDbDictionary
280
     1
281
     1
  3
ACAD_XREC_ROUNDTRIP
360
244
  0
DICTIONARY
  5
245
330
2E
100
AcDbDictionary
280
     1
281
     1
  3
ACAD_XREC_ROUNDTRIP
360
246
  0
DICTIONARY
  5
259
330
38
100
AcDbDictionary
280
     1
281
     1
  3
ACAD_XREC_ROUNDTRIP
360
25A
  0
DICTIONARY
  5
24F
330
33
100
AcDbDictionary
280
     1
281
     1
  3
ACAD_XREC_ROUNDTRIP
360
250
  0
DICTIONARY
  5
257
330
37
100
AcDbDictionary
280
     1
281
     1
  3
ACAD_XREC_ROUNDTRIP
360
258
  0
XRECORD
  5
262
102
{ACAD_REACTORS
330
261
102
}
330
261
100
AcDbXrecord
280
     1
102
MATERIAL
148
0.0
149
0.0
149
0.0
 93
        0
 94
      127
282
     0
 72
     1
 77
     1
171
     1
175
     1
179
     1
273
     0
  0
XRECORD
  5
260
102
{ACAD_REACTORS
330
25F
102
}
330
25F
100
AcDbXrecord
280
     1
102
MATERIAL
148
0.0
149
0.0
149
0.0
 93
        0
 94
      127
282
     0
 72
     1
 77
     1
171
     1
175
     1
179
     1
273
     0
  0
XRECORD
  5
264
102
{ACAD_REACTORS
330
263
102
}
330
263
100
AcDbXrecord
280
     1
102
MATERIAL
148
0.0
149
0.0
149
0.0
 93
        0
 94
      127
282
     0
 72
     1
 77
     1
171
     1
175
     1
179
     1
273
     0
  0
XRECORD
  5
248
102
{ACAD_REACTORS
330
247
102
}
330
247
100
AcDbXrecord
280
     1
102
RTVSPropertyOp0
 70
     1
102
RTVSPropertyOp1
 70
     1
102
RTVSPropertyOp2
 70
     1
102
RTVSPropertyOp3
 70
     1
102
RTVSPropertyOp4
 70
     1
102
RTVSPropertyOp5
 70
     1
102
RTVSPropertyOp6
 70
     1
102
RTVSPropertyOp7
 70
     1
102
RTVSPropertyOp8
 70
     1
102
RTVSPropertyOp9
 70
     1
102
RTVSPropertyOp10
 70
     1
102
RTVSPropertyOp11
 70
     1
102
RTVSPropertyOp12
 70
     1
102
RTVSPropertyOp13
 70
     1
102
RTVSPropertyOp14
 70
     1
102
RTVSPropertyOp15
 70
     1
102
RTVSPropertyOp16
 70
     1
102
RTVSPropertyOp17
 70
     1
102
RTVSPropertyOp18
 70
     1
102
RTVSPropertyOp19
 70
     1
102
RTVSPropertyOp20
 70
     1
102
RTVSPropertyOp21
 70
     1
102
RTVSPropertyOp22
 70
     1
102
RTVSPropertyOp23
 70
     1
102
RTVSPropertyOp24
 70
     1
102
RTVSPropertyOp25
 70
     1
102
RTVSPropertyOp26
 70
     1
102
RTVSPropertyOp27
 70
     1
102
RTVSPropertyOp28
 70
     1
102
RTVSPropertyOp29
 70
     1
102
RTVSPropertyOp30
 70
     1
102
RTVSPropertyOp31
 70
     1
102
RTVSPropertyOp32
 70
     1
  0
XRECORD
  5
24C
102
{ACAD_REACTORS
330
24B
102
}
330
24B
100
AcDbXrecord
280
     1
102
RTVSPropertyOp0
 70
     1
102
RTVSPropertyOp1
 70
     1
102
RTVSPropertyOp2
 70
     1
102
RTVSPropertyOp3
 70
     1
102
RTVSPropertyOp4
 70
     1
102
RTVSPropertyOp5
 70
     1
102
RTVSPropertyOp6
 70
     1
102
RTVSPropertyOp7
 70
     1
102
RTVSPropertyOp8
 70
     1
102
RTVSPropertyOp9
 70
     1
102
RTVSPropertyOp10
 70
     1
102
RTVSPropertyOp11
 70
     1
102
RTVSPropertyOp12
 70
     1
102
RTVSPropertyOp13
 70
     1
102
RTVSPropertyOp14
 70
     1
102
RTVSPropertyOp15
 70
     1
102
RTVSPropertyOp16
 70
     1
102
RTVSPropertyOp17
 70
     1
102
RTVSPropertyOp18
 70
     1
102
RTVSPropertyOp19
 70
     1
102
RTVSPropertyOp20
 70
     1
102
RTVSPropertyOp21
 70
     1
102
RTVSPropertyOp22
 70
     1
102
RTVSPropertyOp23
 70
     1
102
RTVSPropertyOp24
 70
     1
102
RTVSPropertyOp25
 70
     1
102
RTVSPropertyOp26
 70
     1
102
RTVSPropertyOp27
 70
     1
102
RTVSPropertyOp28
 70
     1
102
RTVSPropertyOp29
 70
     1
102
RTVSPropertyOp30
 70
     1
102
RTVSPropertyOp31
 70
     1
102
RTVSPropertyOp32
 70
     1
  0
XRECORD
  5
24A
102
{ACAD_REACTORS
330
249
102
}
330
249
100
AcDbXrecord
280
     1
102
RTVSPropertyOp0
 70
     1
102
RTVSPropertyOp1
 70
     1
102
RTVSPropertyOp2
 70
     1
102
RTVSPropertyOp3
 70
     1
102
RTVSPropertyOp4
 70
     1
102
RTVSPropertyOp5
 70
     1
102
RTVSPropertyOp6
 70
     1
102
RTVSPropertyOp7
 70
     1
102
RTVSPropertyOp8
 70
     1
102
RTVSPropertyOp9
 70
     1
102
RTVSPropertyOp10
 70
     1
102
RTVSPropertyOp11
 70
     1
102
RTVSPropertyOp12
 70
     1
102
RTVSPropertyOp13
 70
     1
102
RTVSPropertyOp14
 70
     1
102
RTVSPropertyOp15
 70
     1
102
RTVSPropertyOp16
 70
     1
102
RTVSPropertyOp17
 70
     1
102
RTVSPropertyOp18
 70
     1
102
RTVSPropertyOp19
 70
     1
102
RTVSPropertyOp20
 70
     1
102
RTVSPropertyOp21
 70
     1
102
RTVSPropertyOp22
 70
     1
102
RTVSPropertyOp23
 70
     1
102
RTVSPropertyOp24
 70
     1
102
RTVSPropertyOp25
 70
     1
102
RTVSPropertyOp26
 70
     1
102
RTVSPropertyOp27
 70
     1
102
RTVSPropertyOp28
 70
     1
102
RTVSPropertyOp29
 70
     1
102
RTVSPropertyOp30
 70
     1
102
RTVSPropertyOp31
 70
     1
102
RTVSPropertyOp32
 70
     1
  0
XRECORD
  5
24E
102
{ACAD_REACTORS
330
24D
102
}
330
24D
100
AcDbXrecord
280
     1
102
RTVSPropertyOp0
 70
     1
102
RTVSPropertyOp1
 70
     1
102
RTVSPropertyOp2
 70
     1
102
RTVSPropertyOp3
 70
     1
102
RTVSPropertyOp4
 70
     1
102
RTVSPropertyOp5
 70
     1
102
RTVSPropertyOp6
 70
     1
102
RTVSPropertyOp7
 70
     1
102
RTVSPropertyOp8
 70
     1
102
RTVSPropertyOp9
 70
     1
102
RTVSPropertyOp10
 70
     1
102
RTVSPropertyOp11
 70
     1
102
RTVSPropertyOp12
 70
     1
102
RTVSPropertyOp13
 70
     1
102
RTVSPropertyOp14
 70
     1
102
RTVSPropertyOp15
 70
     1
102
RTVSPropertyOp16
 70
     1
102
RTVSPropertyOp17
 70
     1
102
RTVSPropertyOp18
 70
     1
102
RTVSPropertyOp19
 70
     1
102
RTVSPropertyOp20
 70
     1
102
RTVSPropertyOp21
 70
     1
102
RTVSPropertyOp22
 70
     1
102
RTVSPropertyOp23
 70
     1
102
RTVSPropertyOp24
 70
     1
102
RTVSPropertyOp25
 70
     1
102
RTVSPropertyOp26
 70
     1
102
RTVSPropertyOp27
 70
     1
102
RTVSPropertyOp28
 70
     1
102
RTVSPropertyOp29
 70
     1
102
RTVSPropertyOp30
 70
     1
102
RTVSPropertyOp31
 70
     1
102
RTVSPropertyOp32
 70
     1
  0
XRECORD
  5
256
102
{ACAD_REACTORS
330
255
102
}
330
255
100
AcDbXrecord
280
     1
102
RTVSPropertyOp0
 70
     1
102
RTVSPropertyOp1
 70
     1
102
RTVSPropertyOp2
 70
     1
102
RTVSPropertyOp3
 70
     1
102
RTVSPropertyOp4
 70
     1
102
RTVSPropertyOp5
 70
     1
102
RTVSPropertyOp6
 70
     1
102
RTVSPropertyOp7
 70
     1
102
RTVSPropertyOp8
 70
     1
102
RTVSPropertyOp9
 70
     1
102
RTVSPropertyOp10
 70
     1
102
RTVSPropertyOp11
 70
     1
102
RTVSPropertyOp12
 70
     1
102
RTVSPropertyOp13
 70
     1
102
RTVSPropertyOp14
 70
     1
102
RTVSPropertyOp15
 70
     1
102
RTVSPropertyOp16
 70
     1
102
RTVSPropertyOp17
 70
     1
102
RTVSPropertyOp18
 70
     1
102
RTVSPropertyOp19
 70
     1
102
RTVSPropertyOp20
 70
     1
102
RTVSPropertyOp21
 70
     1
102
RTVSPropertyOp22
 70
     1
102
RTVSPropertyOp23
 70
     1
102
RTVSPropertyOp24
 70
     1
102
RTVSPropertyOp25
 70
     1
102
RTVSPropertyOp26
 70
     1
102
RTVSPropertyOp27
 70
     1
102
RTVSPropertyOp28
 70
     1
102
RTVSPropertyOp29
 70
     1
102
RTVSPropertyOp30
 70
     1
102
RTVSPropertyOp31
 70
     1
102
RTVSPropertyOp32
 70
     1
  0
XRECORD
  5
25E
102
{ACAD_REACTORS
330
25D
102
}
330
25D
100
AcDbXrecord
280
     1
102
RTVSPropertyOp0
 70
     1
102
RTVSPropertyOp1
 70
     1
102
RTVSPropertyOp2
 70
     1
102
RTVSPropertyOp3
 70
     1
102
RTVSPropertyOp4
 70
     1
102
RTVSPropertyOp5
 70
     1
102
RTVSPropertyOp6
 70
     1
102
RTVSPropertyOp7
 70
     1
102
RTVSPropertyOp8
 70
     1
102
RTVSPropertyOp9
 70
     1
102
RTVSPropertyOp10
 70
     1
102
RTVSPropertyOp11
 70
     1
102
RTVSPropertyOp12
 70
     1
102
RTVSPropertyOp13
 70
     1
102
RTVSPropertyOp14
 70
     1
102
RTVSPropertyOp15
 70
     1
102
RTVSPropertyOp16
 70
     1
102
RTVSPropertyOp17
 70
     1
102
RTVSPropertyOp18
 70
     1
102
RTVSPropertyOp19
 70
     1
102
RTVSPropertyOp20
 70
     1
102
RTVSPropertyOp21
 70
     1
102
RTVSPropertyOp22
 70
     1
102
RTVSPropertyOp23
 70
     1
102
RTVSPropertyOp24
 70
     1
102
RTVSPropertyOp25
 70
     1
102
RTVSPropertyOp26
 70
     1
102
RTVSPropertyOp27
 70
     1
102
RTVSPropertyOp28
 70
     1
102
RTVSPropertyOp29
 70
     1
102
RTVSPropertyOp30
 70
     1
102
RTVSPropertyOp31
 70
     1
102
RTVSPropertyOp32
 70
     1
  0
XRECORD
  5
252
102
{ACAD_REACTORS
330
251
102
}
330
251
100
AcDbXrecord
280
     1
102
RTVSPropertyOp0
 70
     1
102
RTVSPropertyOp1
 70
     1
102
RTVSPropertyOp2
 70
     1
102
RTVSPropertyOp3
 70
     1
102
RTVSPropertyOp4
 70
     1
102
RTVSPropertyOp5
 70
     1
102
RTVSPropertyOp6
 70
     1
102
RTVSPropertyOp7
 70
     1
102
RTVSPropertyOp8
 70
     1
102
RTVSPropertyOp9
 70
     1
102
RTVSPropertyOp10
 70
     1
102
RTVSPropertyOp11
 70
     1
102
RTVSPropertyOp12
 70
     1
102
RTVSPropertyOp13
 70
     1
102
RTVSPropertyOp14
 70
     1
102
RTVSPropertyOp15
 70
     1
102
RTVSPropertyOp16
 70
     1
102
RTVSPropertyOp17
 70
     1
102
RTVSPropertyOp18
 70
     1
102
RTVSPropertyOp19
 70
     1
102
RTVSPropertyOp20
 70
     1
102
RTVSPropertyOp21
 70
     1
102
RTVSPropertyOp22
 70
     1
102
RTVSPropertyOp23
 70
     1
102
RTVSPropertyOp24
 70
     1
102
RTVSPropertyOp25
 70
     1
102
RTVSPropertyOp26
 70
     1
102
RTVSPropertyOp27
 70
     1
102
RTVSPropertyOp28
 70
     1
102
RTVSPropertyOp29
 70
     1
102
RTVSPropertyOp30
 70
     1
102
RTVSPropertyOp31
 70
     1
102
RTVSPropertyOp32
 70
     1
  0
XRECORD
  5
254
102
{ACAD_REACTORS
330
253
102
}
330
253
100
AcDbXrecord
280
     1
102
RTVSPropertyOp0
 70
     1
102
RTVSPropertyOp1
 70
     1
102
RTVSPropertyOp2
 70
     1
102
RTVSPropertyOp3
 70
     1
102
RTVSPropertyOp4
 70
     1
102
RTVSPropertyOp5
 70
     1
102
RTVSPropertyOp6
 70
     1
102
RTVSPropertyOp7
 70
     1
102
RTVSPropertyOp8
 70
     1
102
RTVSPropertyOp9
 70
     1
102
RTVSPropertyOp10
 70
     1
102
RTVSPropertyOp11
 70
     1
102
RTVSPropertyOp12
 70
     1
102
RTVSPropertyOp13
 70
     1
102
RTVSPropertyOp14
 70
     1
102
RTVSPropertyOp15
 70
     1
102
RTVSPropertyOp16
 70
     1
102
RTVSPropertyOp17
 70
     1
102
RTVSPropertyOp18
 70
     1
102
RTVSPropertyOp19
 70
     1
102
RTVSPropertyOp20
 70
     1
102
RTVSPropertyOp21
 70
     1
102
RTVSPropertyOp22
 70
     1
102
RTVSPropertyOp23
 70
     1
102
RTVSPropertyOp24
 70
     1
102
RTVSPropertyOp25
 70
     1
102
RTVSPropertyOp26
 70
     1
102
RTVSPropertyOp27
 70
     1
102
RTVSPropertyOp28
 70
     1
102
RTVSPropertyOp29
 70
     1
102
RTVSPropertyOp30
 70
     1
102
RTVSPropertyOp31
 70
     1
102
RTVSPropertyOp32
 70
     1
  0
XRECORD
  5
25C
102
{ACAD_REACTORS
330
25B
102
}
330
25B
100
AcDbXrecord
280
     1
102
RTVSPropertyOp0
 70
     1
102
RTVSPropertyOp1
 70
     1
102
RTVSPropertyOp2
 70
     1
102
RTVSPropertyOp3
 70
     1
102
RTVSPropertyOp4
 70
     1
102
RTVSPropertyOp5
 70
     1
102
RTVSPropertyOp6
 70
     1
102
RTVSPropertyOp7
 70
     1
102
RTVSPropertyOp8
 70
     1
102
RTVSPropertyOp9
 70
     1
102
RTVSPropertyOp10
 70
     1
102
RTVSPropertyOp11
 70
     1
102
RTVSPropertyOp12
 70
     1
102
RTVSPropertyOp13
 70
     1
102
RTVSPropertyOp14
 70
     1
102
RTVSPropertyOp15
 70
     1
102
RTVSPropertyOp16
 70
     1
102
RTVSPropertyOp17
 70
     1
102
RTVSPropertyOp18
 70
     1
102
RTVSPropertyOp19
 70
     1
102
RTVSPropertyOp20
 70
     1
102
RTVSPropertyOp21
 70
     1
102
RTVSPropertyOp22
 70
     1
102
RTVSPropertyOp23
 70
     1
102
RTVSPropertyOp24
 70
     1
102
RTVSPropertyOp25
 70
     1
102
RTVSPropertyOp26
 70
     1
102
RTVSPropertyOp27
 70
     1
102
RTVSPropertyOp28
 70
     1
102
RTVSPropertyOp29
 70
     1
102
RTVSPropertyOp30
 70
     1
102
RTVSPropertyOp31
 70
     1
102
RTVSPropertyOp32
 70
     1
  0
XRECORD
  5
240
102
{ACAD_REACTORS
330
23F
102
}
330
23F
100
AcDbXrecord
280
     1
102
RTVSPropertyOp0
 70
     1
102
RTVSPropertyOp1
 70
     1
102
RTVSPropertyOp2
 70
     1
102
RTVSPropertyOp3
 70
     1
102
RTVSPropertyOp4
 70
     1
102
RTVSPropertyOp5
 70
     1
102
RTVSPropertyOp6
 70
     1
102
RTVSPropertyOp7
 70
     1
102
RTVSPropertyOp8
 70
     1
102
RTVSPropertyOp9
 70
     1
102
RTVSPropertyOp10
 70
     1
102
RTVSPropertyOp11
 70
     1
102
RTVSPropertyOp12
 70
     1
102
RTVSPropertyOp13
 70
     1
102
RTVSPropertyOp14
 70
     1
102
RTVSPropertyOp15
 70
     1
102
RTVSPropertyOp16
 70
     1
102
RTVSPropertyOp17
 70
     1
102
RTVSPropertyOp18
 70
     1
102
RTVSPropertyOp19
 70
     1
102
RTVSPropertyOp20
 70
     1
102
RTVSPropertyOp21
 70
     1
102
RTVSPropertyOp22
 70
     1
102
RTVSPropertyOp23
 70
     1
102
RTVSPropertyOp24
 70
     1
102
RTVSPropertyOp25
 70
     1
102
RTVSPropertyOp26
 70
     1
102
RTVSPropertyOp27
 70
     1
102
RTVSPropertyOp28
 70
     1
102
RTVSPropertyOp29
 70
     1
102
RTVSPropertyOp30
 70
     1
102
RTVSPropertyOp31
 70
     1
102
RTVSPropertyOp32
 70
     1
  0
XRECORD
  5
242
102
{ACAD_REACTORS
330
241
102
}
330
241
100
AcDbXrecord
280
     1
102
RTVSPropertyOp0
 70
     1
102
RTVSPropertyOp1
 70
     1
102
RTVSPropertyOp2
 70
     1
102
RTVSPropertyOp3
 70
     1
102
RTVSPropertyOp4
 70
     1
102
RTVSPropertyOp5
 70
     1
102
RTVSPropertyOp6
 70
     1
102
RTVSPropertyOp7
 70
     1
102
RTVSPropertyOp8
 70
     1
102
RTVSPropertyOp9
 70
     1
102
RTVSPropertyOp10
 70
     1
102
RTVSPropertyOp11
 70
     1
102
RTVSPropertyOp12
 70
     1
102
RTVSPropertyOp13
 70
     1
102
RTVSPropertyOp14
 70
     1
102
RTVSPropertyOp15
 70
     1
102
RTVSPropertyOp16
 70
     1
102
RTVSPropertyOp17
 70
     1
102
RTVSPropertyOp18
 70
     1
102
RTVSPropertyOp19
 70
     1
102
RTVSPropertyOp20
 70
     1
102
RTVSPropertyOp21
 70
     1
102
RTVSPropertyOp22
 70
     1
102
RTVSPropertyOp23
 70
     1
102
RTVSPropertyOp24
 70
     1
102
RTVSPropertyOp25
 70
     1
102
RTVSPropertyOp26
 70
     1
102
RTVSPropertyOp27
 70
     1
102
RTVSPropertyOp28
 70
     1
102
RTVSPropertyOp29
 70
     1
102
RTVSPropertyOp30
 70
     1
102
RTVSPropertyOp31
 70
     1
102
RTVSPropertyOp32
 70
     1
  0
XRECORD
  5
244
102
{ACAD_REACTORS
330
243
102
}
330
243
100
AcDbXrecord
280
     1
102
RTVSPropertyOp0
 70
     1
102
RTVSPropertyOp1
 70
     1
102
RTVSPropertyOp2
 70
     1
102
RTVSPropertyOp3
 70
     1
102
RTVSPropertyOp4
 70
     1
102
RTVSPropertyOp5
 70
     1
102
RTVSPropertyOp6
 70
     1
102
RTVSPropertyOp7
 70
     1
102
RTVSPropertyOp8
 70
     1
102
RTVSPropertyOp9
 70
     1
102
RTVSPropertyOp10
 70
     1
102
RTVSPropertyOp11
 70
     1
102
RTVSPropertyOp12
 70
     1
102
RTVSPropertyOp13
 70
     1
102
RTVSPropertyOp14
 70
     1
102
RTVSPropertyOp15
 70
     1
102
RTVSPropertyOp16
 70
     1
102
RTVSPropertyOp17
 70
     1
102
RTVSPropertyOp18
 70
     1
102
RTVSPropertyOp19
 70
     1
102
RTVSPropertyOp20
 70
     1
102
RTVSPropertyOp21
 70
     1
102
RTVSPropertyOp22
 70
     1
102
RTVSPropertyOp23
 70
     1
102
RTVSPropertyOp24
 70
     1
102
RTVSPropertyOp25
 70
     1
102
RTVSPropertyOp26
 70
     1
102
RTVSPropertyOp27
 70
     1
102
RTVSPropertyOp28
 70
     1
102
RTVSPropertyOp29
 70
     1
102
RTVSPropertyOp30
 70
     1
102
RTVSPropertyOp31
 70
     1
102
RTVSPropertyOp32
 70
     1
  0
XRECORD
  5
246
102
{ACAD_REACTORS
330
245
102
}
330
245
100
AcDbXrecord
280
     1
102
RTVSPropertyOp0
 70
     1
102
RTVSPropertyOp1
 70
     1
102
RTVSPropertyOp2
 70
     1
102
RTVSPropertyOp3
 70
     1
102
RTVSPropertyOp4
 70
     1
102
RTVSPropertyOp5
 70
     1
102
RTVSPropertyOp6
 70
     1
102
RTVSPropertyOp7
 70
     1
102
RTVSPropertyOp8
 70
     1
102
RTVSPropertyOp9
 70
     1
102
RTVSPropertyOp10
 70
     1
102
RTVSPropertyOp11
 70
     1
102
RTVSPropertyOp12
 70
     1
102
RTVSPropertyOp13
 70
     1
102
RTVSPropertyOp14
 70
     1
102
RTVSPropertyOp15
 70
     1
102
RTVSPropertyOp16
 70
     1
102
RTVSPropertyOp17
 70
     1
102
RTVSPropertyOp18
 70
     1
102
RTVSPropertyOp19
 70
     1
102
RTVSPropertyOp20
 70
     1
102
RTVSPropertyOp21
 70
     1
102
RTVSPropertyOp22
 70
     1
102
RTVSPropertyOp23
 70
     1
102
RTVSPropertyOp24
 70
     1
102
RTVSPropertyOp25
 70
     1
102
RTVSPropertyOp26
 70
     1
102
RTVSPropertyOp27
 70
     1
102
RTVSPropertyOp28
 70
     1
102
RTVSPropertyOp29
 70
     1
102
RTVSPropertyOp30
 70
     1
102
RTVSPropertyOp31
 70
     1
102
RTVSPropertyOp32
 70
     1
  0
XRECORD
  5
25A
102
{ACAD_REACTORS
330
259
102
}
330
259
100
AcDbXrecord
280
     1
102
RTVSPropertyOp0
 70
     1
102
RTVSPropertyOp1
 70
     1
102
RTVSPropertyOp2
 70
     1
102
RTVSPropertyOp3
 70
     1
102
RTVSPropertyOp4
 70
     1
102
RTVSPropertyOp5
 70
     1
102
RTVSPropertyOp6
 70
     1
102
RTVSPropertyOp7
 70
     1
102
RTVSPropertyOp8
 70
     1
102
RTVSPropertyOp9
 70
     1
102
RTVSPropertyOp10
 70
     1
102
RTVSPropertyOp11
 70
     1
102
RTVSPropertyOp12
 70
     1
102
RTVSPropertyOp13
 70
     1
102
RTVSPropertyOp14
 70
     1
102
RTVSPropertyOp15
 70
     1
102
RTVSPropertyOp16
 70
     1
102
RTVSPropertyOp17
 70
     1
102
RTVSPropertyOp18
 70
     1
102
RTVSPropertyOp19
 70
     1
102
RTVSPropertyOp20
 70
     1
102
RTVSPropertyOp21
 70
     1
102
RTVSPropertyOp22
 70
     1
102
RTVSPropertyOp23
 70
     1
102
RTVSPropertyOp24
 70
     1
102
RTVSPropertyOp25
 70
     1
102
RTVSPropertyOp26
 70
     1
102
RTVSPropertyOp27
 70
     1
102
RTVSPropertyOp28
 70
     1
102
RTVSPropertyOp29
 70
     1
102
RTVSPropertyOp30
 70
     1
102
RTVSPropertyOp31
 70
     1
102
RTVSPropertyOp32
 70
     1
  0
XRECORD
  5
250
102
{ACAD_REACTORS
330
24F
102
}
330
24F
100
AcDbXrecord
280
     1
102
RTVSPropertyOp0
 70
     1
102
RTVSPropertyOp1
 70
     1
102
RTVSPropertyOp2
 70
     1
102
RTVSPropertyOp3
 70
     1
102
RTVSPropertyOp4
 70
     1
102
RTVSPropertyOp5
 70
     1
102
RTVSPropertyOp6
 70
     1
102
RTVSPropertyOp7
 70
     1
102
RTVSPropertyOp8
 70
     1
102
RTVSPropertyOp9
 70
     1
102
RTVSPropertyOp10
 70
     1
102
RTVSPropertyOp11
 70
     1
102
RTVSPropertyOp12
 70
     1
102
RTVSPropertyOp13
 70
     1
102
RTVSPropertyOp14
 70
     1
102
RTVSPropertyOp15
 70
     1
102
RTVSPropertyOp16
 70
     1
102
RTVSPropertyOp17
 70
     1
102
RTVSPropertyOp18
 70
     1
102
RTVSPropertyOp19
 70
     1
102
RTVSPropertyOp20
 70
     1
102
RTVSPropertyOp21
 70
     1
102
RTVSPropertyOp22
 70
     1
102
RTVSPropertyOp23
 70
     1
102
RTVSPropertyOp24
 70
     1
102
RTVSPropertyOp25
 70
     1
102
RTVSPropertyOp26
 70
     1
102
RTVSPropertyOp27
 70
     1
102
RTVSPropertyOp28
 70
     1
102
RTVSPropertyOp29
 70
     1
102
RTVSPropertyOp30
 70
     1
102
RTVSPropertyOp31
 70
     1
102
RTVSPropertyOp32
 70
     1
  0
XRECORD
  5
258
102
{ACAD_REACTORS
330
257
102
}
330
257
100
AcDbXrecord
280
     1
102
RTVSPropertyOp0
 70
     1
102
RTVSPropertyOp1
 70
     1
102
RTVSPropertyOp2
 70
     1
102
RTVSPropertyOp3
 70
     1
102
RTVSPropertyOp4
 70
     1
102
RTVSPropertyOp5
 70
     1
102
RTVSPropertyOp6
 70
     1
102
RTVSPropertyOp7
 70
     1
102
RTVSPropertyOp8
 70
     1
102
RTVSPropertyOp9
 70
     1
102
RTVSPropertyOp10
 70
     1
102
RTVSPropertyOp11
 70
     1
102
RTVSPropertyOp12
 70
     1
102
RTVSPropertyOp13
 70
     1
102
RTVSPropertyOp14
 70
     1
102
RTVSPropertyOp15
 70
     1
102
RTVSPropertyOp16
 70
     1
102
RTVSPropertyOp17
 70
     1
102
RTVSPropertyOp18
 70
     1
102
RTVSPropertyOp19
 70
     1
102
RTVSPropertyOp20
 70
     1
102
RTVSPropertyOp21
 70
     1
102
RTVSPropertyOp22
 70
     1
102
RTVSPropertyOp23
 70
     1
102
RTVSPropertyOp24
 70
     1
102
RTVSPropertyOp25
 70
     1
102
RTVSPropertyOp26
 70
     1
102
RTVSPropertyOp27
 70
     1
102
RTVSPropertyOp28
 70
     1
102
RTVSPropertyOp29
 70
     1
102
RTVSPropertyOp30
 70
     1
102
RTVSPropertyOp31
 70
     1
102
RTVSPropertyOp32
 70
     1
  0
ENDSEC
  0
EOF
